<svg xmlns="http://www.w3.org/2000/svg"><defs><font><glyph unicode="&#x20;"/><glyph d="M75 155 56 660H189L169 155H75ZM122-14Q93-14 77 3T61 47Q61 74 77 91T122 108Q151 108 167 91T183 47Q183 20 167 3T122-14Z" unicode="&#x21;"/><glyph d="M245 390 215 660H345L315 390H245ZM75 390 45 660H175L145 390H75Z" unicode="&#x26;&#x71;&#x75;&#x6f;&#x74;&#x3b;"/><glyph d="M116 0 152 172H29V237H165L202 413H89V478H216L257 675H356L315 478H442L483 675H582L541 478H669V413H527L491 237H609V172H477L441 0H342L378 172H251L215 0H116ZM265 237H391L428 413H301L265 237Z" unicode="&#x23;"/><glyph d="M235-80V-15Q185-11 141 4T70 44 42 103V220H70Q85 126 125 82T235 29V287L167 328Q99 368 71 410T43 507Q43 579 94 624T235 677V735H305V676Q353 672 396 657T466 616 493 558V441H465Q450 536 410 580T305 631V390L388 341Q456 301 487 263T519 169Q519 90 464 41T305-16V-80H235ZM305 31Q345 39 369 62T393 125Q393 164 370 191T305 245V31ZM235 432V628Q200 618 181 595T161 536Q161 500 180 478T235 432Z" unicode="&#x24;"/><glyph d="M83 0 567 660H673L189 0H83ZM568-5Q493-5 451 31T408 133Q408 199 450 235T568 271Q641 271 683 235T726 133Q726 67 684 31T568-5ZM567 35Q646 35 646 133 646 231 566 231 488 231 488 133 488 35 567 35ZM190 389Q115 389 73 425T30 527Q30 593 72 629T190 665Q263 665 305 629T348 527Q348 461 306 425T190 389ZM189 429Q268 429 268 527 268 625 188 625 110 625 110 527 110 429 189 429Z" unicode="&#x25;"/><glyph d="M279-20Q187-20 133 1T55 58 32 135Q32 180 53 214T111 276 190 326Q183 332 165 350T127 396 93 456 79 524Q79 598 132 639T279 680Q370 680 417 641T464 540Q464 499 443 464T386 398 309 340L494 140Q512 160 527 182T554 221Q561 231 567 241T578 261L616 236Q612 226 607 215T594 193Q583 174 567 151T528 103L625 0H489L451 38Q452 38 430 24T368-5 279-20ZM288 20Q331 20 365 36T421 72L230 278Q203 254 183 221T162 145Q162 88 193 54T288 20ZM272 381Q304 410 324 445T344 530Q344 572 334 596T309 630 279 640Q257 640 241 630T217 594 209 524Q209 497 215 475T231 434 252 403 272 381Z" unicode="&#x26;&#x61;&#x6d;&#x70;&#x3b;"/><glyph d="M75 390 45 660H175L145 390H75Z" unicode="&#x27;"/><glyph d="M297-220Q208-159 147-89T55 63 24 240Q24 336 55 417T147 569 297 700L311 680Q253 628 219 560T169 411 154 240Q154 151 169 70T218-79 311-200L297-220Z" unicode="&#x28;"/><glyph d="M24-220 10-200Q69-148 103-80T152 70 167 240Q167 330 152 410T103 559 10 680L24 700Q114 640 174 570T266 418 297 240Q297 145 266 63T175-89 24-220Z" unicode="&#x29;"/><glyph d="M161 324 185 445 87 356 38 442 182 492 38 542 87 628 185 539 161 660H273L249 539 347 628 396 542 252 492 396 442 347 356 248 446 273 324H161Z" unicode="&#x2a;"/><glyph d="M228 100V295H31V365H228V560H318V365H515V295H318V100H228Z" unicode="&#x2b;"/><glyph d="M63-160 45-136Q62-125 81-107T113-65 127-11Q124-12 120-13T112-14Q83-14 67 3T51 47Q51 74 67 91T112 108Q145 108 161 84T178 30Q178-27 153-72T63-160Z" unicode="&#x2c;"/><glyph d="M58 217V312H337V217H58Z" unicode="&#x2d;"/><glyph d="M112-14Q83-14 67 3T51 47Q51 74 67 91T112 108Q141 108 157 91T173 47Q173 20 157 3T112-14Z" unicode="&#x2e;"/><glyph d="M21 0 342 660H454L133 0H21Z" unicode="&#x2f;"/><glyph d="M303-20Q208-20 151 24T68 147 43 330Q43 434 68 513T150 636 303 680Q399 680 456 636T538 513 563 330Q563 226 538 147T456 24 303-20ZM303 25Q366 25 394 98T423 330Q423 488 395 561T303 635Q240 635 212 562T183 330Q183 172 211 99T303 25Z" unicode="&#x30;"/><glyph d="M119 0V542L32 486 8 517 162 660H249V0H119Z" unicode="&#x31;"/><glyph d="M41 0V65Q66 90 105 126T186 206 266 297 326 393 350 487Q350 539 334 571T293 619 240 635Q177 635 134 593T76 460H41Q41 498 44 537T65 600Q92 633 144 656T260 680Q295 680 334 673T409 645 467 587 490 487Q490 440 468 394T411 304 333 220 250 147 177 87 128 45H335Q395 45 427 73T460 155H490V80Q490 60 483 42T458 12 405 0H41Z" unicode="&#x32;"/><glyph d="M277-20Q213-20 168-7T89 31 27 88L55 117Q97 70 143 48T233 25Q272 25 303 41T353 93 372 185Q372 239 355 273T308 324 244 340Q224 340 210 338T180 332 139 321L115 359 388 615H209Q149 615 117 587T84 505H54V580Q54 600 61 618T86 648 139 660H477V615L228 381Q229 382 251 383T292 385Q326 385 364 375T436 341 491 279 512 185Q512 122 487 82T423 20 346-11 277-20Z" unicode="&#x33;"/><glyph d="M329 0V170H9V210L355 660H459V215H549V170H459V0H329ZM78 215H329V543L78 215Z" unicode="&#x34;"/><glyph d="M265-20Q183-20 131 9T37 88L66 114Q104 67 151 46T242 25Q281 25 312 41T361 94 380 190Q380 268 339 306T222 344Q188 344 153 336T97 321L57 360 68 660H457V616H184L175 385 205 387Q218 388 233 389T262 390Q301 390 346 381T430 350 495 288 520 190Q520 127 494 86T428 22 345-10 265-20Z" unicode="&#x35;"/><glyph d="M294-20Q169-20 107 68T44 330Q44 511 114 595T324 680Q370 680 414 669T484 646L478 618Q440 625 417 628T377 633 344 635Q269 635 224 574T179 385Q200 402 237 417T319 433Q397 433 443 405T509 325 529 205Q529 147 503 96T424 12 294-20ZM294 25Q327 25 349 49T382 115 394 205Q394 294 370 341T289 388Q259 388 234 376T194 352 179 337Q179 226 193 157T233 57 294 25Z" unicode="&#x36;"/><glyph d="M96 0 346 615H176Q116 615 84 587T51 505H21V580Q21 600 28 618T53 648 106 660H467V615L217 0H96Z" unicode="&#x37;"/><glyph d="M289-20Q221-20 164-3T73 53 39 152Q39 200 62 234T124 292 206 335Q167 357 135 380T84 434 64 508Q64 574 94 611T176 664 289 680Q351 680 402 665T483 615 514 518Q514 480 496 450T448 397 379 358Q421 336 457 310T516 248 539 162Q539 96 506 56T416-2 289-20ZM289 25Q323 25 349 38T389 77 404 142Q404 183 384 213T331 267 259 311Q234 298 215 278T185 228 174 152Q174 108 188 80T229 39 289 25ZM327 384Q353 404 366 433T379 518Q379 564 365 589T329 625 289 635Q270 635 249 626T214 593 199 528Q199 497 216 471T263 422 327 384Z" unicode="&#x38;"/><glyph d="M236-20Q204-20 172-15T115-1 76 14L82 42Q123 35 144 31T180 26 216 25Q291 25 336 86T381 275Q360 258 323 243T241 227Q163 227 117 255T51 335 31 455Q31 514 57 565T136 648 266 680Q391 680 453 592T516 330Q516 148 446 64T236-20ZM271 272Q301 272 326 284T366 309 381 323Q381 434 367 503T327 603 266 635Q234 635 212 611T178 545 166 455Q166 366 190 319T271 272Z" unicode="&#x39;"/><glyph d="M119 339Q90 339 74 356T58 400Q58 427 74 444T119 461Q148 461 164 444T180 400Q180 373 164 356T119 339ZM119-14Q90-14 74 3T58 47Q58 74 74 91T119 108Q148 108 164 91T180 47Q180 20 164 3T119-14Z" unicode="&#x3a;"/><glyph d="M124 339Q95 339 79 356T63 400Q63 427 79 444T124 461Q153 461 169 444T185 400Q185 373 169 356T124 339ZM75-160 57-136Q74-125 93-107T125-65 139-11Q136-12 132-13T124-14Q95-14 79 3T63 47Q63 74 79 91T124 108Q157 108 173 84T190 30Q190-27 165-72T75-160Z" unicode="&#x3b;"/><glyph d="M549 74 29 300V370L549 596V505L157 335 549 165V74Z" unicode="&#x26;&#x6c;&#x74;&#x3b;"/><glyph d="M58 385V455H607V385H58ZM58 205V275H607V205H58Z" unicode="&#x3d;"/><glyph d="M61 74V165L453 335 61 505V596L581 370V300L61 74Z" unicode="&#x26;&#x67;&#x74;&#x3b;"/><glyph d="M202 156Q204 200 217 233T250 293 287 348 317 409 329 487Q329 572 300 603T225 635Q166 635 122 592T59 447H29Q29 491 32 532T55 599Q83 631 138 655T255 680Q301 680 340 667T408 630 453 569 469 487Q469 437 450 402T403 339 345 286 295 230 270 156H202ZM236-14Q207-14 191 3T175 47Q175 74 191 91T236 108Q265 108 281 91T297 47Q297 20 281 3T236-14Z" unicode="&#x3f;"/><glyph d="M440-180Q321-180 229-132T86 13 34 250Q34 392 85 487T229 631 440 680Q560 680 651 632T794 493 846 270Q846 139 795 72T635 5Q618 5 593 7T545 22 510 60H505Q491 38 463 22T390 5Q348 5 317 15T264 42 231 85 220 140Q220 185 242 218T324 270 490 288H505Q505 354 494 389T462 437 414 450Q380 450 353 430T314 360H259Q259 395 268 421T295 465Q310 480 349 487T434 495Q482 495 519 482T582 443 621 378 635 285V102Q635 80 644 66T675 51Q706 51 728 70T763 137 776 270Q776 389 734 470T617 593 440 635Q340 635 264 593T146 465 104 250Q104 121 146 36T264-92 440-135Q535-135 613-111T757-40L783-80Q720-124 637-152T440-180ZM420 55Q453 55 475 77T505 120V242H490Q408 242 379 218T350 140Q350 97 367 76T420 55Z" unicode="&#x40;"/><glyph d="M628-4Q595-4 559 4T489 41 431 126L408 182H142L60 0H8L303 660H348L572 126Q590 82 616 56T676 26V1Q668-1 654-2T628-4ZM163 227H389L279 488 163 227Z" unicode="&#x41;"/><glyph d="M95 0V530Q95 575 83 602T25 630H15V660H285Q332 660 383 655T479 632 552 579 580 485Q580 442 546 401T441 341Q507 335 543 312T595 256 610 183Q610 126 585 90T516 35 421 8 315 0H95ZM300 40Q383 40 426 76T470 178Q470 247 428 281T300 316H225V50Q236 47 256 44T300 40ZM225 361H300Q341 361 372 373T422 414 440 490Q440 540 418 568T360 608 285 620Q274 620 261 619T225 613V361Z" unicode="&#x42;"/><glyph d="M367-20Q262-20 188 25T76 147 37 320Q37 396 61 461T131 576 236 652 367 680Q461 680 518 656T604 599Q624 573 627 532T630 447H600Q581 538 531 586T397 635Q336 635 286 607T207 511 177 320Q177 263 189 210T227 115 295 49 397 25Q466 25 525 61T620 168L655 141Q608 58 540 19T367-20Z" unicode="&#x43;"/><glyph d="M95 0V530Q95 575 83 602T25 630H15V660H287Q493 660 596 573T700 334Q700 235 656 160T525 43 313 0H95ZM310 40Q380 40 434 75T519 175 550 330Q550 418 520 483T435 584 308 620Q286 620 270 619T225 613V47Q247 43 259 42T283 40 310 40Z" unicode="&#x44;"/><glyph d="M95 0V530Q95 575 83 602T25 630H15V660H456Q491 660 509 649T534 619 541 580V495H511Q511 559 479 587T386 615H225V365H485V320H225V45H396Q451 45 489 69T554 159L581 149 552 70Q541 38 524 19T465 0H95Z" unicode="&#x45;"/><glyph d="M95 0V530Q95 575 83 602T25 630H15V660H434Q469 660 487 649T512 619 519 580V495H489Q489 560 457 587T364 615H225V360H445V315H225V0H95Z" unicode="&#x46;"/><glyph d="M395-20Q317-20 252 7T138 84 62 198 35 340Q35 436 76 513T191 635 365 680Q459 680 519 656T607 599Q627 574 630 534T633 460H603Q584 552 533 593T395 635Q335 635 294 611T226 545 187 450 175 340Q175 219 204 149T284 50 395 20Q440 20 472 27T530 46V224Q530 245 536 266T563 305 621 335 724 346V321Q690 321 675 296T660 226V47Q602 12 537-4T395-20Z" unicode="&#x47;"/><glyph d="M95 0V530Q95 575 83 602T25 630H15V660H135Q170 660 189 648T217 608 225 530V365H495V660H625V130Q625 85 637 58T695 30H705V0H585Q550 0 531 11T503 51 495 130V320H225V0H95Z" unicode="&#x48;"/><glyph d="M169 0Q134 0 115 11T87 51 79 130V660H209V130Q209 85 221 58T279 30H289V0H169Z" unicode="&#x49;"/><glyph d="M-19-137V-107Q11-103 32-86T63-28 74 83V660H204V83Q204-3 186-51T120-118-19-137Z" unicode="&#x4a;"/><glyph d="M631-10Q594-10 556-1T477 34 387 110L226 278V0H96L95 530Q95 575 83 602T25 630H15V660H135Q170 660 189 648T217 608 226 530V340L399 555Q421 583 447 607T505 645 576 660H646V625Q589 625 543 611T463 554L314 370 545 130Q570 103 599 80T657 42 704 24V0Q693-4 674-7T631-10Z" unicode="&#x4b;"/><glyph d="M95 0V530Q95 575 83 602T25 630H15V660H135Q170 660 189 648T217 608 225 530V45H570V0H95Z" unicode="&#x4c;"/><glyph d="M847-45Q775-45 730-23T665 47 644 170V524L425 0H392L124 544V0H74V660H196L438 169 643 660H774V170Q774 79 789 34T847-20V-45Z" unicode="&#x4d;"/><glyph d="M572-3 148 495V0H98V540Q98 578 80 604T8 630H3V660H73Q130 660 165 645T224 600L568 200V660H618V-3H572Z" unicode="&#x4e;"/><glyph d="M367-20Q268-20 194 26T78 152 37 330Q37 429 78 508T193 633 367 680Q467 680 540 634T655 508 696 330Q696 231 655 152T541 27 367-20ZM367 25Q428 25 470 60T535 164 558 330Q558 428 536 496T471 599 367 635Q307 635 265 600T200 496 177 330Q177 233 199 165T264 61 367 25Z" unicode="&#x4f;"/><glyph d="M95 0V530Q95 575 83 602T25 630H15V660H290Q317 660 352 657T423 642 491 609 541 551 560 459Q560 407 541 373T493 317 430 285 368 271 320 267H225V0H95ZM225 307H285Q311 307 335 314T378 339 408 387 420 464Q420 510 409 540T379 588 337 613 290 620Q279 620 264 619T225 613V307Z" unicode="&#x50;"/><glyph d="M693-205Q617-205 542-186T396-122 264-4Q195 18 144 66T66 181 38 330Q38 429 79 508T194 633 368 680Q468 680 541 634T656 508 697 330Q697 247 669 178T588 61 463-7Q476-43 501-74T559-129 627-166 693-179V-205ZM368 25Q429 25 471 60T536 164 559 330Q559 428 537 496T472 599 368 635Q308 635 266 600T201 496 178 330Q178 233 200 165T265 61 368 25Z" unicode="&#x51;"/><glyph d="M559-10Q524-10 492 4T430 49 366 135L266 302H226V0H95V530Q95 575 83 602T25 630H15V660H291Q318 660 353 657T425 643 492 612 542 560 561 479Q561 426 538 393T477 340 399 310L504 135Q542 71 574 50T628 25V0Q620-4 600-7T559-10ZM226 342H286Q310 342 334 349T377 372 409 415 421 481Q421 520 410 546T379 589 336 613 288 620Q280 620 265 619T226 613V342Z" unicode="&#x52;"/><glyph d="M273-17Q232-17 192-9T119 14 67 52 47 103V220H75Q91 116 139 72T272 28Q310 28 338 39T382 71 398 125Q398 168 371 196T295 254L172 328Q104 368 76 410T48 507Q48 586 108 632T272 678Q313 678 353 670T426 647 478 609 498 558V441H470Q453 545 406 589T283 633Q247 633 221 621T180 588 166 536Q166 494 194 468T270 414L393 341Q461 301 492 263T524 169Q524 83 459 33T273-17Z" unicode="&#x53;"/><glyph d="M232 0V615H161Q108 615 77 589T46 495H16V580Q16 600 23 618T48 648 101 660H571V615H362V0H232Z" unicode="&#x54;"/><glyph d="M362-10Q272-10 212 23T122 122 92 288V530Q92 573 81 600T31 630H22V660H132Q167 660 186 648T214 608 222 530L223 258Q224 154 263 95T382 35Q450 35 493 62T556 145 577 288V660H627V288Q627 194 602 128T518 26 362-10Z" unicode="&#x55;"/><glyph d="M299-10 66 543Q42 599 20 621T-33 648V668Q-29 668-14 669T9 670Q44 670 80 662T150 627 207 543L365 169 576 660H627L339-10H299Z" unicode="&#x56;"/><glyph d="M277-9 61 543Q38 600 15 622T-38 648V668Q-34 668-19 669T4 670Q39 670 76 663T146 628 202 543L337 198 427 454 392 543Q369 600 343 622T286 648V668Q290 668 304 669T325 670Q360 670 397 662T467 628 523 543L666 179 837 660H885L648-9H608L454 383 317-9H277Z" unicode="&#x57;"/><glyph d="M17 0 263 311 121 530Q105 556 82 580T35 621-13 640V660H97Q135 660 165 643T220 601 260 550L347 416 540 660H605L376 371 533 130Q550 104 572 80T620 39 667 20V0H557Q520 0 489 17T434 59 394 110L293 266 82 0H17Z" unicode="&#x58;"/><glyph d="M279 0V264L102 530Q85 556 63 580T16 621-31 640V660H78Q116 660 146 643T201 601 241 550L377 345 571 660H636L409 291V0H279Z" unicode="&#x59;"/><glyph d="M31 0V32L403 616H186Q133 616 102 589T71 495H41V580Q41 600 48 618T73 648 126 660H581L189 45H576V0H31Z" unicode="&#x5a;"/><glyph d="M66-200V680H311V635H186V-155H311V-200H66Z" unicode="&#x5b;"/><glyph d="M342 0 21 660H133L454 0H342Z" unicode="&#x5c;"/><glyph d="M20-200V-155H145V635H20V680H265V-200H20Z" unicode="&#x5d;"/><glyph d="M20 330 235 680H279L494 330H396L257 557 118 330H20Z" unicode="&#x5e;"/><glyph d="M8-70V0H428V-70H8Z" unicode="&#x5f;"/><glyph d="M133 477 20 680H145L207 477H133Z" unicode="&#x60;"/><glyph d="M199-10Q157-10 126 0T73 27 40 70 29 125Q29 173 51 206T133 257 299 275H314Q314 335 303 370T271 420 219 435Q185 435 158 418T119 345H64Q64 371 67 398T89 445Q107 465 148 472T239 480Q288 480 326 467T390 428 430 363 444 270V0H359L324 45H319Q306 24 275 7T199-10ZM229 40Q262 40 284 62T314 105V230H299Q227 230 196 204T164 125Q164 83 181 62T229 40Z" unicode="&#x61;"/><glyph d="M300-10Q256-10 227 7T185 45H180L145 0H60V530Q60 575 48 602T-10 630H-20V660H100Q135 660 154 648T182 608 190 530V450Q208 461 234 470T295 480Q368 480 415 448T486 360 510 235Q510 167 487 111T417 23 300-10ZM280 35Q315 35 335 61T365 132 375 235Q375 293 366 338T335 409 275 435Q246 435 225 425T190 405V100Q201 75 224 55T280 35Z" unicode="&#x62;"/><glyph d="M276-10Q196-10 143 23T63 113 36 235Q36 302 62 357T142 446 276 480Q333 480 372 472T431 445Q450 426 453 394T456 305H426Q422 369 387 402T291 435Q255 435 228 414T186 348 171 235Q171 169 185 125T226 58 296 35Q348 35 380 59T439 118L470 95Q456 73 433 49T372 7 276-10Z" unicode="&#x63;"/><glyph d="M247-10Q177-10 131 22T61 111 37 235Q37 304 60 359T132 447 252 480Q286 480 312 471T357 450V530Q357 575 345 602T287 630H277V660H397Q432 660 451 648T479 608 487 530V0H402L367 45H362Q349 25 320 8T247-10ZM267 35Q291 35 309 46T339 72 357 100V405Q343 416 321 425T272 435Q235 435 213 409T182 338 172 235Q172 178 181 133T211 61 267 35Z" unicode="&#x64;"/><glyph d="M267-10Q197-10 145 22T65 109 37 235Q37 315 66 369T145 452 257 480Q319 480 369 455T448 385 477 280L473 217H172Q172 118 202 77T282 35Q334 35 366 59T425 118L456 95Q442 73 419 49T359 7 267-10ZM172 262H342Q342 361 319 398T257 435Q235 435 216 419T184 366 172 262Z" unicode="&#x65;"/><glyph d="M72 0V425H12V470H72V497Q72 554 93 592T158 650 267 670Q293 670 319 666T358 653Q371 646 380 635T397 610L357 575Q342 598 320 611T272 625Q238 625 220 598T202 497V470H332V425H202V0H72Z" unicode="&#x66;"/><glyph d="M259-200Q189-200 134-186T46-137 14-45Q14-9 34 17T86 60 149 85Q130 91 117 104T104 140Q104 157 114 169T144 190Q102 205 73 241T44 324Q44 382 73 416T150 465 259 480H469V453L379 441Q421 425 447 392T474 324Q474 267 448 233T373 185 259 170Q214 170 187 165T159 140Q159 123 186 119T259 113Q327 112 382 95T471 43 504-45Q504-103 472-137T385-185 259-200ZM259-155Q309-155 339-129T369-45Q369 0 341 29T267 67L220 72Q187 58 168 31T149-45Q149-102 179-128T259-155ZM259 210Q294 210 316 236T339 324Q339 381 317 410T259 440Q224 440 202 413T179 324Q179 262 201 236T259 210Z" unicode="&#x67;"/><glyph d="M60 0V530Q60 575 48 602T-10 630H-20V660H100Q135 660 154 648T182 608 190 530V442Q207 455 236 467T300 480Q334 480 367 472T429 444 473 388 490 297V0H360V292Q360 344 348 374T315 417 270 430Q244 430 223 417T190 395V0H60Z" unicode="&#x68;"/><glyph d="M79 0V340Q79 385 67 412T9 440H-1V470H119Q154 470 173 458T201 418 209 340V0H79ZM144 524Q106 524 88 547T69 600Q69 626 85 641T124 656Q162 656 180 633T199 580Q199 554 183 539T144 524Z" unicode="&#x69;"/><glyph d="M-9-190V-165Q21-159 40-141T69-83 79 25V340Q79 385 67 412T9 440H-1V470H119Q154 470 173 458T201 418 209 340V25Q209-57 189-104T121-170-9-190ZM144 524Q106 524 88 547T69 600Q69 626 85 641T124 656Q162 656 180 633T199 580Q199 554 183 539T144 524Z" unicode="&#x6a;"/><glyph d="M435-10Q393-10 356 7T286 70L190 196V0H60V530Q60 575 48 602T-10 630H-20V660H100Q135 660 154 648T182 608 190 530V245L311 393Q342 430 372 450T455 470H475V444Q445 444 421 432T375 394L278 276 411 100Q437 65 460 47T504 24V0Q496-4 475-7T435-10Z" unicode="&#x6b;"/><glyph d="M64 0V530Q64 575 52 602T-6 630H-16V660H104Q139 660 158 648T186 608 194 530V0H64Z" unicode="&#x6c;"/><glyph d="M80 0V340Q80 385 68 412T11 440H1V470H100Q130 470 152 462T185 432H189Q207 448 238 464T315 480Q353 480 381 470T427 446 453 423Q473 445 505 462T595 480Q651 480 690 461T749 402 770 296V0H640V297Q640 370 617 400T560 430Q532 430 510 419T474 392Q482 377 486 352T490 296V0H360V297Q360 370 337 400T280 430Q261 430 242 420T210 398V0H80Z" unicode="&#x6d;"/><glyph d="M80 0V340Q80 385 68 412T11 440H1V470H100Q134 470 153 462T184 433Q202 450 235 465T330 480Q393 480 435 461T498 402 520 296V0H390V297Q390 346 378 375T344 417 295 430Q267 430 246 423T210 405V0H80Z" unicode="&#x6e;"/><glyph d="M276-10Q202-10 148 22T65 111 36 235Q36 304 65 359T148 447 276 480Q351 480 404 448T487 360 516 235Q516 167 487 111T405 23 276-10ZM276 35Q311 35 334 61T369 132 381 235Q381 293 370 338T335 409 276 435Q241 435 218 409T183 338 171 235Q171 178 182 133T217 61 276 35Z" unicode="&#x6f;"/><glyph d="M80-190V340Q80 385 68 412T11 440H1V470H100Q134 470 153 461T184 428Q202 444 235 462T320 480Q390 480 436 448T506 360 530 235Q530 167 507 111T436 23 315-10Q282-10 254-1T210 20V-190H80ZM295 35Q333 35 354 61T385 132 395 235Q395 293 386 338T356 409 300 435Q266 435 245 424T210 401V65Q222 55 246 45T295 35Z" unicode="&#x70;"/><glyph d="M357-190V20Q342 9 313 0T252-10Q180-10 132 22T61 111 37 235Q37 304 60 359T130 447 247 480Q291 480 320 462T362 425H367L402 470H487V-190H357ZM272 35Q298 35 321 45T357 65V370Q345 390 323 412T267 435Q232 435 211 409T181 338 172 235Q172 178 181 133T213 61 272 35Z" unicode="&#x71;"/><glyph d="M80 0V340Q80 385 68 412T11 440H1V470H100Q134 470 153 462T184 433Q202 449 233 464T310 480Q332 480 350 475T381 460Q398 448 406 431T415 415L364 376Q355 389 338 402T295 415Q263 415 241 406T206 384Q208 366 209 355T210 336V0H80Z" unicode="&#x72;"/><glyph d="M229-10Q167-10 128 1T68 31Q50 48 47 80T44 150H79Q87 102 118 69T209 35Q265 35 287 54T309 103Q309 132 283 149T219 184L167 206Q107 232 73 265T39 347Q39 412 93 446T229 480Q291 480 330 469T390 439Q408 422 411 390T414 320H379Q371 368 340 401T249 435Q204 435 184 416T164 367Q164 340 183 324T235 293L295 268Q364 239 399 208T434 123Q434 58 376 24T229-10Z" unicode="&#x73;"/><glyph d="M226-10Q158-10 120 27T81 136V425H21V470H81V560L131 620H211V470H321V425H211V130Q211 74 224 55T263 35Q289 35 309 44T342 62L356 34Q336 16 304 3T226-10Z" unicode="&#x74;"/><glyph d="M255-10Q193-10 152 9T90 69 70 174V340Q70 385 58 412T0 440H-10V470H110Q145 470 164 458T192 418 200 340V173Q200 121 210 91T239 48 285 35Q309 35 327 46T357 72 375 100V470H505V0H420L385 45H380Q361 24 330 7T255-10Z" unicode="&#x75;"/><glyph d="M246-10 77 355Q51 410 32 433T-12 458V478Q-8 478 5 479T25 480Q65 480 99 471T163 434 217 355L305 163 441 470H495L282-10H246Z" unicode="&#x76;"/><glyph d="M242-10 79 355Q54 411 33 434T-14 459V478Q-11 478-2 478T19 479 34 480Q98 480 140 455T216 355L301 164 368 324Q345 377 328 405T297 446 266 459V478Q270 478 283 479T304 480Q368 480 415 455T496 355L588 154 710 470H763L579-10H533L403 271 287-10H242Z" unicode="&#x77;"/><glyph d="M23 0 192 209 96 370Q75 406 51 426T3 450V470H98Q147 470 175 449T226 390L274 309 405 470H472L303 262 400 100Q421 64 445 44T493 20V0H398Q349 0 321 21T270 80L221 161 90 0H23Z" unicode="&#x78;"/><glyph d="M92-200V-165Q144-165 179-145T236-68L257-14 77 380Q61 417 38 436T-16 460V480H72Q117 480 151 459T202 400L317 148 439 470H492L290-65Q270-119 247-148T195-189 132-200H92Z" unicode="&#x79;"/><glyph d="M39 0V31L302 425H184Q120 425 95 402T69 330H39V390Q39 410 46 428T71 458 124 470H480L196 45H459V0H39Z" unicode="&#x7a;"/><glyph d="M293-211Q223-205 182-180T122-115 103-30V110Q103 151 81 183T3 224V256Q59 264 81 297T103 370V510Q103 556 121 595T181 660 293 691V656Q259 650 246 624T233 552V380Q233 323 205 290T113 240Q176 223 204 190T233 100V-72Q233-117 246-143T293-176V-211Z" unicode="&#x7b;"/><glyph d="M66-190V680H196V-190H66Z" unicode="&#x7c;"/><glyph d="M19-211V-176Q53-170 66-144T79-72V100Q79 157 107 190T199 240Q136 257 108 290T79 380V552Q79 597 66 623T19 656V691Q89 686 130 660T190 595 209 510V370Q209 330 231 297T309 256V224Q253 216 231 184T209 110V-30Q209-75 191-114T131-179 19-211Z" unicode="&#x7d;"/><glyph d="M441 167Q403 167 366 179T295 207 229 235 171 247Q129 247 110 232T91 187H51Q51 239 63 273T103 325 171 343Q209 343 246 331T317 303 383 275 441 263Q483 263 502 278T521 323H561Q561 271 549 237T510 185 441 167Z" unicode="&#x7e;"/><glyph unicode="&#xa0;"/><glyph d="M53-194 72 311H166L186-194H53ZM119 358Q90 358 74 375T58 419Q58 446 74 463T119 480Q148 480 164 463T180 419Q180 392 164 375T119 358Z" unicode="&#xa1;"/><glyph d="M241-50V-8Q171-2 125 32T55 119 31 235Q31 298 54 350T124 437 241 478V520H301V479Q346 477 377 469T426 445Q445 426 448 394T451 305H421Q417 365 386 397T301 434V35Q349 37 379 60T434 118L465 95Q452 75 432 53T380 13 301-8V-50H241ZM241 45V424Q206 407 186 360T166 235Q166 157 185 110T241 45Z" unicode="&#xa2;"/><glyph d="M36 0V30Q62 38 76 57T95 116 101 220V320H41V365H101V460Q101 524 120 565T169 629 236 661 306 670Q351 670 394 662T456 635Q475 616 478 589T481 535H426Q415 584 390 604T326 625Q301 625 280 611T245 561 231 460V365H361V320H231V220Q231 149 209 108T161 45H351Q411 45 438 75T466 165H496V80Q496 60 489 42T464 12 411 0H36Z" unicode="&#xa3;"/><glyph d="M116 0V190H66V235H116V285H66V330H116V535Q116 576 104 603T46 630H36V660H311Q384 660 444 641T540 583 576 480Q576 413 540 370T442 306 306 285H246V235H496V190H246V0H116ZM246 330H306Q339 330 368 343T417 390 436 480Q436 530 416 561T368 606 311 620Q292 620 277 620T246 615V330Z" unicode="&#xa4;"/><glyph d="M331 0V135H247V180H331V220H247V265H330L154 530Q137 556 115 580T68 621 21 640V660H130Q168 660 198 643T253 601 293 550L429 345 623 660H688L461 291V265H547V220H461V180H547V135H461V0H331Z" unicode="&#xa5;"/><glyph d="M69 327V680H199V327H69ZM69-190V163H199V-190H69Z" unicode="&#xa6;"/><glyph d="M220-200Q174-200 137-190T79-159Q57-137 54-112T50-49H82Q90-98 117-126T190-155Q228-155 249-135T271-67Q271-33 255-8T212 36 156 74 100 113 57 161 40 225Q40 272 72 310T152 370Q112 397 84 432T55 517Q55 571 79 604T144 654 230 670Q276 670 313 660T371 629Q393 607 396 582T400 519H368Q360 568 333 596T260 625Q222 625 201 605T180 537Q180 503 196 478T239 434 295 396 350 356 393 309 410 245Q410 194 379 157T296 100Q336 72 365 38T395-47Q395-100 371-134T306-184 220-200ZM258 125Q279 133 290 154T301 215Q301 256 269 287T192 344Q171 336 160 315T149 255Q149 214 181 182T258 125Z" unicode="&#xa7;"/><glyph d="M226 690Q200 690 185 706T170 746Q170 769 185 785T226 802Q252 802 267 786T282 746Q282 723 267 707T226 690ZM56 690Q30 690 15 706T0 746Q0 769 15 785T56 802Q82 802 97 786T112 746Q112 723 97 707T56 690Z" unicode="&#xa8;"/><glyph d="M403-28Q323-28 256-2T138 73 61 187 33 330Q33 408 60 473T138 586 255 661 403 688Q483 688 550 662T668 587 745 473 773 330Q773 252 746 187T668 74 551-1 403-28ZM403 102Q337 102 289 132T214 213 188 327Q188 394 217 447T295 533 403 565Q467 565 506 549T563 512Q579 493 581 466T584 409H553Q541 473 511 503T423 533Q385 533 353 514T302 450 283 327Q283 279 297 235T343 163 423 134Q466 134 502 158T567 230L592 212Q560 152 514 127T403 102ZM403 17Q491 17 558 57T664 167 703 330Q703 422 665 492T559 603 403 643Q315 643 248 603T142 493 103 330Q103 238 141 168T247 57 403 17Z" unicode="&#xa9;"/><glyph d="M131 396Q107 396 87 403T54 425 42 466Q42 492 57 510T103 537 180 547H196Q196 585 189 604T172 629 150 635Q122 635 109 621T90 583H61Q61 597 62 613T75 641Q85 652 108 656T160 660Q190 660 214 652T253 620 268 547V401H222L203 426H200Q191 416 175 406T131 396ZM150 421Q167 421 178 432T196 455V522H180Q151 522 133 507T114 466Q114 440 125 431T150 421Z" unicode="&#xaa;"/><glyph d="M189 30 31 225 189 420H253L156 226 253 30H189ZM308 80 206 225 308 370H372L310 225 372 80H308Z" unicode="&#xab;"/><glyph d="M513 115V220H58V290H603V115H513Z" unicode="&#xac;"/><glyph d="M58 217V312H337V217H58Z" unicode="&#xad;"/><glyph d="M403-25Q323-25 256 1T138 74 61 187 33 330Q33 408 60 473T138 585 255 659 403 685Q483 685 550 659T668 586 745 473 773 330Q773 252 746 187T668 75 551 1 403-25ZM403 20Q491 20 558 59T664 168 703 330Q703 422 665 492T559 601 403 640Q315 640 248 601T142 492 103 330Q103 238 141 168T247 59 403 20ZM555 118Q517 118 491 138T431 212L364 320H344V125H256V477Q256 505 251 522T226 539H208V555H381Q415 555 447 550T504 531 543 494 558 434Q558 400 543 378T503 344 455 326L523 216Q546 180 564 161T607 139V125Q607 124 594 121T555 118ZM378 349Q403 349 422 357T452 386 463 438Q463 470 452 489T422 517 378 526Q373 526 363 526T344 524V351Q348 350 359 350T378 349Z" unicode="&#xae;"/><glyph d="M20 766H312V700H20V766Z" unicode="&#xaf;"/><glyph d="M209 360Q126 360 82 406T38 521Q38 588 82 634T209 680Q291 680 334 634T378 521Q378 453 335 407T209 360ZM208 420Q234 420 254 432T286 467 298 520Q298 550 286 572T254 607 208 620Q183 620 163 608T130 573 118 520Q118 490 130 468T162 433 208 420Z" unicode="&#xb0;"/><glyph d="M49 55V125H246V295H49V365H246V560H336V365H533V295H336V125H533V55H49Z" unicode="&#xb1;"/><glyph d="M53 377V400Q100 448 130 480T176 539 192 602Q192 637 180 649T147 662Q116 662 99 642T74 583H58Q58 600 59 621T69 653Q82 668 106 678T160 689Q184 689 208 682T248 656 264 602Q264 563 243 534T186 474 110 404H191Q219 404 233 414T248 448H263V413Q263 399 256 388T224 377H53Z" unicode="&#xb2;"/><glyph d="M154 367Q112 367 87 381T43 418L57 430Q90 394 140 394 160 394 177 409T194 462Q194 498 176 511T134 524Q123 524 114 523T91 518L75 546 193 653H115Q90 653 78 643T65 610H52V643Q52 657 59 668T91 680H244V662L116 547Q128 550 139 550T155 551Q181 551 206 542T249 514 266 462Q266 424 246 403T200 375 154 367Z" unicode="&#xb3;"/><glyph d="M20 700 62 840H181L75 700H20Z" unicode="&#xb4;"/><glyph d="M63-190V470H193V235Q193 167 204 123T237 57 288 35Q322 35 342 54T373 100V470H503V0H418L383 45H378Q365 25 338 8T273-10Q243-10 220 1T173 35V-190H63Z" unicode="&#xb5;"/><glyph d="M256-190V270Q191 270 139 295T56 364 26 466Q26 523 56 566T138 635 256 660H596V615H541V-190H421V615H376V-190H256Z" unicode="&#xb6;"/><glyph d="M113 270Q84 270 68 287T52 331Q52 358 68 375T113 392Q142 392 158 375T174 331Q174 304 158 287T113 270Z" unicode="&#xb7;"/><glyph d="M40-206V-160H90Q109-160 119-151T130-128Q130-114 120-105T90-95H45V0H110V-50Q152-50 176-71T200-128Q200-163 176-184T110-206H40Z" unicode="&#xb8;"/><glyph d="M80 377V614L46 594 30 616 98 680H152V377H80Z" unicode="&#xb9;"/><glyph d="M168 367Q124 367 96 389T56 448 43 528Q43 572 55 608T96 667 168 689Q214 689 241 667T281 609 294 528Q294 485 282 449T242 390 168 367ZM168 392Q192 392 207 420T222 528Q222 582 215 611T196 652 168 664Q153 664 141 653T122 612 115 528Q115 449 130 421T168 392Z" unicode="&#xba;"/><glyph d="M172 30 269 226 172 420H236L394 225 236 30H172ZM53 80 115 225 53 370H117L219 225 117 80H53Z" unicode="&#xbb;"/><glyph d="M26 0 481 660H576L121 0H26ZM361 100H467V246L361 100ZM467 0V73H322V97L472 304H539V100H573V73H539V0H467ZM113 377V614L79 594 63 616 131 680H185V377H113Z" unicode="&#xbc;"/><glyph d="M26 0 481 660H576L121 0H26ZM372 0V23Q419 71 449 103T495 162 511 225Q511 260 499 272T466 285Q435 285 418 265T393 206H377Q377 223 378 244T388 276Q401 291 425 301T479 312Q503 312 527 305T567 279 583 225Q583 186 562 157T505 97 429 27H510Q538 27 552 37T567 71H582V36Q582 22 575 11T543 0H372ZM113 377V614L79 594 63 616 131 680H185V377H113Z" unicode="&#xbd;"/><glyph d="M45 0 500 660H595L140 0H45ZM370 100H476V246L370 100ZM476 0V73H331V97L481 304H548V100H582V73H548V0H476ZM148 367Q106 367 81 381T37 418L51 430Q84 394 134 394 154 394 171 409T188 462Q188 498 170 511T128 524Q117 524 108 523T85 518L69 546 187 653H109Q84 653 72 643T59 610H46V643Q46 657 53 668T85 680H238V662L110 547Q122 550 133 550T149 551Q175 551 200 542T243 514 260 462Q260 424 240 403T194 375 148 367Z" unicode="&#xbe;"/><glyph d="M240-212Q194-212 155-199T87-162 42-101 26-19Q26 31 45 66T92 129 150 182 200 238 225 312H293Q291 268 278 235T245 175 208 120 178 59 166-19Q166-104 195-135T270-167Q327-167 372-124T436 21H466Q466-23 463-64T440-131Q412-163 357-187T240-212ZM259 360Q230 360 214 377T198 421Q198 448 214 465T259 482Q288 482 304 465T320 421Q320 394 304 377T259 360Z" unicode="&#xbf;"/><glyph d="M628-4Q595-4 559 4T489 41 431 126L408 182H142L60 0H8L303 660H348L572 126Q590 82 616 56T676 26V1Q668-1 654-2T628-4ZM163 227H389L279 488 163 227ZM295 701 189 841H308L350 701H295Z" unicode="&#xc0;"/><glyph d="M628-4Q595-4 559 4T489 41 431 126L408 182H142L60 0H8L303 660H348L572 126Q590 82 616 56T676 26V1Q668-1 654-2T628-4ZM163 227H389L279 488 163 227ZM301 700 343 840H462L356 700H301Z" unicode="&#xc1;"/><glyph d="M628-4Q595-4 559 4T489 41 431 126L408 182H142L60 0H8L303 660H348L572 126Q590 82 616 56T676 26V1Q668-1 654-2T628-4ZM163 227H389L279 488 163 227ZM178 685 258 810H388L468 685H408L323 765 238 685H178Z" unicode="&#xc2;"/><glyph d="M628-4Q595-4 559 4T489 41 431 126L408 182H142L60 0H8L303 660H348L572 126Q590 82 616 56T676 26V1Q668-1 654-2T628-4ZM163 227H389L279 488 163 227ZM210 700Q210 760 229 780T278 800Q301 800 316 790T344 770 370 760Q387 760 396 772T405 800H445Q445 740 427 720T378 700Q356 700 340 710T312 730 285 740Q268 740 259 728T250 700H210Z" unicode="&#xc3;"/><glyph d="M628-4Q595-4 559 4T489 41 431 126L408 182H142L60 0H8L303 660H348L572 126Q590 82 616 56T676 26V1Q668-1 654-2T628-4ZM163 227H389L279 488 163 227ZM409 690Q383 690 368 706T353 746Q353 769 368 785T409 802Q435 802 450 786T465 746Q465 723 450 707T409 690ZM239 690Q213 690 198 706T183 746Q183 769 198 785T239 802Q265 802 280 786T295 746Q295 723 280 707T239 690Z" unicode="&#xc4;"/><glyph d="M628-4Q595-4 559 4T489 41 431 126L408 182H142L60 0H8L284 619Q266 628 248 650T230 705Q230 747 256 773T325 800Q367 800 393 774T420 705Q420 672 402 650T365 619L572 126Q590 82 616 56T676 26V1Q668-1 654-2T628-4ZM163 227H389L279 488 163 227ZM303 660H348Q359 668 364 679T370 705Q370 728 357 741T325 755Q306 755 293 742T280 705Q280 690 286 679T303 660Z" unicode="&#xc5;"/><glyph d="M-22 0 348 660H724Q759 660 777 649T802 619 809 580V495H779Q779 559 747 587T654 615H493V365H753V320H493V45H664Q719 45 757 69T822 159L849 149 820 70Q809 38 792 19T733 0H363V190H145L38 0H-22ZM170 235H363V579L170 235Z" unicode="&#xc6;"/><glyph d="M367-20Q262-20 188 25T76 147 37 320Q37 396 61 461T131 576 236 652 367 680Q461 680 518 656T604 599Q624 573 627 532T630 447H600Q581 538 531 586T397 635Q336 635 286 607T207 511 177 320Q177 263 189 210T227 115 295 49 397 25Q466 25 525 61T620 168L655 141Q608 58 540 19T367-20ZM318-206V-160H368Q387-160 397-151T408-128Q408-114 398-105T368-95H323V0H388V-50Q430-50 454-71T478-128Q478-163 454-184T388-206H318Z" unicode="&#xc7;"/><glyph d="M95 0V530Q95 575 83 602T25 630H15V660H456Q491 660 509 649T534 619 541 580V495H511Q511 559 479 587T386 615H225V365H485V320H225V45H396Q451 45 489 69T554 159L581 149 552 70Q541 38 524 19T465 0H95ZM298 701 192 841H311L353 701H298Z" unicode="&#xc8;"/><glyph d="M95 0V530Q95 575 83 602T25 630H15V660H456Q491 660 509 649T534 619 541 580V495H511Q511 559 479 587T386 615H225V365H485V320H225V45H396Q451 45 489 69T554 159L581 149 552 70Q541 38 524 19T465 0H95ZM280 700 322 840H441L335 700H280Z" unicode="&#xc9;"/><glyph d="M95 0V530Q95 575 83 602T25 630H15V660H456Q491 660 509 649T534 619 541 580V495H511Q511 559 479 587T386 615H225V365H485V320H225V45H396Q451 45 489 69T554 159L581 149 552 70Q541 38 524 19T465 0H95ZM160 722 240 847H370L450 722H390L305 802 220 722H160Z" unicode="&#xca;"/><glyph d="M95 0V530Q95 575 83 602T25 630H15V660H456Q491 660 509 649T534 619 541 580V495H511Q511 559 479 587T386 615H225V365H485V320H225V45H396Q451 45 489 69T554 159L581 149 552 70Q541 38 524 19T465 0H95ZM392 730Q366 730 351 746T336 786Q336 809 351 825T392 842Q418 842 433 826T448 786Q448 763 433 747T392 730ZM212 730Q186 730 171 746T156 786Q156 809 171 825T212 842Q238 842 253 826T268 786Q268 763 253 747T212 730Z" unicode="&#xcb;"/><glyph d="M169 0Q134 0 115 11T87 51 79 130V660H209V130Q209 85 221 58T279 30H289V0H169ZM127 701 21 841H140L182 701H127Z" unicode="&#xcc;"/><glyph d="M169 0Q134 0 115 11T87 51 79 130V660H209V130Q209 85 221 58T279 30H289V0H169ZM111 700 153 840H272L166 700H111Z" unicode="&#xcd;"/><glyph d="M169 0Q134 0 115 11T87 51 79 130V660H209V130Q209 85 221 58T279 30H289V0H169ZM255 695 335 820H465L545 695H485L400 775 315 695H255Z" unicode="&#xce;"/><glyph d="M169 0Q134 0 115 11T87 51 79 130V660H209V130Q209 85 221 58T279 30H289V0H169ZM61 715Q35 715 20 731T5 771Q5 794 20 810T61 827Q87 827 102 811T117 771Q117 748 102 732T61 715ZM227 715Q201 715 186 731T171 771Q171 794 186 810T227 827Q253 827 268 811T283 771Q283 748 268 732T227 715Z" unicode="&#xcf;"/><glyph d="M95 0V305H25V355H95V530Q95 575 83 602T25 630H15V660H287Q493 660 596 573T700 334Q700 235 656 160T525 43 313 0H95ZM310 40Q380 40 434 75T519 175 550 330Q550 418 520 483T435 584 308 620Q286 620 270 619T225 613V355H300V305H225V47Q247 43 259 42T283 40 310 40Z" unicode="&#xd0;"/><glyph d="M572-3 148 495V0H98V540Q98 578 80 604T8 630H3V660H73Q130 660 165 645T224 600L568 200V660H618V-3H572ZM235 694Q235 754 254 774T303 794Q326 794 341 784T369 764 395 754Q412 754 421 766T430 794H470Q470 734 452 714T403 694Q381 694 365 704T337 724 310 734Q293 734 284 722T275 694H235Z" unicode="&#xd1;"/><glyph d="M367-20Q268-20 194 26T78 152 37 330Q37 429 78 508T193 633 367 680Q467 680 540 634T655 508 696 330Q696 231 655 152T541 27 367-20ZM367 25Q428 25 470 60T535 164 558 330Q558 428 536 496T471 599 367 635Q307 635 265 600T200 496 177 330Q177 233 199 165T264 61 367 25ZM344 723 238 863H357L399 723H344Z" unicode="&#xd2;"/><glyph d="M367-20Q268-20 194 26T78 152 37 330Q37 429 78 508T193 633 367 680Q467 680 540 634T655 508 696 330Q696 231 655 152T541 27 367-20ZM367 25Q428 25 470 60T535 164 558 330Q558 428 536 496T471 599 367 635Q307 635 265 600T200 496 177 330Q177 233 199 165T264 61 367 25ZM338 724 380 864H499L393 724H338Z" unicode="&#xd3;"/><glyph d="M367-20Q268-20 194 26T78 152 37 330Q37 429 78 508T193 633 367 680Q467 680 540 634T655 508 696 330Q696 231 655 152T541 27 367-20ZM367 25Q428 25 470 60T535 164 558 330Q558 428 536 496T471 599 367 635Q307 635 265 600T200 496 177 330Q177 233 199 165T264 61 367 25ZM218 731 298 856H428L508 731H448L363 811 278 731H218Z" unicode="&#xd4;"/><glyph d="M367-20Q268-20 194 26T78 152 37 330Q37 429 78 508T193 633 367 680Q467 680 540 634T655 508 696 330Q696 231 655 152T541 27 367-20ZM367 25Q428 25 470 60T535 164 558 330Q558 428 536 496T471 599 367 635Q307 635 265 600T200 496 177 330Q177 233 199 165T264 61 367 25ZM249 738Q249 798 268 818T317 838Q340 838 355 828T383 808 409 798Q426 798 435 810T444 838H484Q484 778 466 758T417 738Q395 738 379 748T351 768 324 778Q307 778 298 766T289 738H249Z" unicode="&#xd5;"/><glyph d="M367-20Q268-20 194 26T78 152 37 330Q37 429 78 508T193 633 367 680Q467 680 540 634T655 508 696 330Q696 231 655 152T541 27 367-20ZM367 25Q428 25 470 60T535 164 558 330Q558 428 536 496T471 599 367 635Q307 635 265 600T200 496 177 330Q177 233 199 165T264 61 367 25ZM457 735Q431 735 416 751T401 791Q401 814 416 830T457 847Q483 847 498 831T513 791Q513 768 498 752T457 735ZM277 735Q251 735 236 751T221 791Q221 814 236 830T277 847Q303 847 318 831T333 791Q333 768 318 752T277 735Z" unicode="&#xd6;"/><glyph d="M105 132 42 195 181 334 43 472 107 536 245 398 384 537 448 474 308 334 446 196 382 133 245 271 105 132Z" unicode="&#xd7;"/><glyph d="M107-20 152 56Q97 104 67 174T37 330Q37 429 78 508T193 633 367 680Q406 680 442 673T510 649L528 680H620L576 607Q633 559 664 488T696 330Q696 231 655 152T541 27 367-20Q325-20 288-12T219 13L199-20H107ZM367 25Q428 25 470 60T535 164 558 330Q558 389 550 436T525 522L253 70Q298 25 367 25ZM206 145 476 593Q430 635 367 635 307 635 265 600T200 496 177 330Q177 221 206 145Z" unicode="&#xd8;"/><glyph d="M362-10Q272-10 212 23T122 122 92 288V530Q92 573 81 600T31 630H22V660H132Q167 660 186 648T214 608 222 530L223 258Q224 154 263 95T382 35Q450 35 493 62T556 145 577 288V660H627V288Q627 194 602 128T518 26 362-10ZM369 680 263 820H382L424 680H369Z" unicode="&#xd9;"/><glyph d="M362-10Q272-10 212 23T122 122 92 288V530Q92 573 81 600T31 630H22V660H132Q167 660 186 648T214 608 222 530L223 258Q224 154 263 95T382 35Q450 35 493 62T556 145 577 288V660H627V288Q627 194 602 128T518 26 362-10ZM337 680 379 820H498L392 680H337Z" unicode="&#xda;"/><glyph d="M362-10Q272-10 212 23T122 122 92 288V530Q92 573 81 600T31 630H22V660H132Q167 660 186 648T214 608 222 530L223 258Q224 154 263 95T382 35Q450 35 493 62T556 145 577 288V660H627V288Q627 194 602 128T518 26 362-10ZM243 681 323 806H453L533 681H473L388 761 303 681H243Z" unicode="&#xdb;"/><glyph d="M362-10Q272-10 212 23T122 122 92 288V530Q92 573 81 600T31 630H22V660H132Q167 660 186 648T214 608 222 530L223 258Q224 154 263 95T382 35Q450 35 493 62T556 145 577 288V660H627V288Q627 194 602 128T518 26 362-10ZM473 680Q447 680 432 696T417 736Q417 759 432 775T473 792Q499 792 514 776T529 736Q529 713 514 697T473 680ZM293 680Q267 680 252 696T237 736Q237 759 252 775T293 792Q319 792 334 776T349 736Q349 713 334 697T293 680Z" unicode="&#xdc;"/><glyph d="M279 0V264L102 530Q85 556 63 580T16 621-31 640V660H78Q116 660 146 643T201 601 241 550L377 345 571 660H636L409 291V0H279ZM318 669 360 809H479L373 669H318Z" unicode="&#xdd;"/><glyph d="M97-30V560Q97 605 85 632T27 660H17V690H137Q190 690 208 662T227 560V550Q382 546 459 487T537 315Q537 200 460 142T227 80V-30H97ZM227 125Q286 129 323 153T379 219 397 315Q397 370 379 411T323 476 227 504V125Z" unicode="&#xde;"/><glyph d="M380-10Q342-10 308 0T255 30Q236 49 233 75T230 120H260Q264 90 289 63T360 35Q394 35 412 54T430 100Q430 133 411 155T362 196 304 235 255 282 235 350Q235 383 245 404T271 441 303 471 329 504 340 550Q340 588 320 606T270 625Q236 625 213 598T190 500V0H60V500Q60 570 87 606T164 656 275 670Q373 670 419 643T465 570Q465 537 453 514T422 472 384 439 353 407 340 370Q340 337 361 315T415 274 480 235 533 188 555 120Q555 75 529 46T463 4 380-10Z" unicode="&#xdf;"/><glyph d="M199-10Q157-10 126 0T73 27 40 70 29 125Q29 173 51 206T133 257 299 275H314Q314 335 303 370T271 420 219 435Q185 435 158 418T119 345H64Q64 371 67 398T89 445Q107 465 148 472T239 480Q288 480 326 467T390 428 430 363 444 270V0H359L324 45H319Q306 24 275 7T199-10ZM229 40Q262 40 284 62T314 105V230H299Q227 230 196 204T164 125Q164 83 181 62T229 40ZM221 525 115 665H234L276 525H221Z" unicode="&#xe0;"/><glyph d="M199-10Q157-10 126 0T73 27 40 70 29 125Q29 173 51 206T133 257 299 275H314Q314 335 303 370T271 420 219 435Q185 435 158 418T119 345H64Q64 371 67 398T89 445Q107 465 148 472T239 480Q288 480 326 467T390 428 430 363 444 270V0H359L324 45H319Q306 24 275 7T199-10ZM229 40Q262 40 284 62T314 105V230H299Q227 230 196 204T164 125Q164 83 181 62T229 40ZM201 525 243 665H362L256 525H201Z" unicode="&#xe1;"/><glyph d="M199-10Q157-10 126 0T73 27 40 70 29 125Q29 173 51 206T133 257 299 275H314Q314 335 303 370T271 420 219 435Q185 435 158 418T119 345H64Q64 371 67 398T89 445Q107 465 148 472T239 480Q288 480 326 467T390 428 430 363 444 270V0H359L324 45H319Q306 24 275 7T199-10ZM229 40Q262 40 284 62T314 105V230H299Q227 230 196 204T164 125Q164 83 181 62T229 40ZM105 530 185 655H315L395 530H335L250 610 165 530H105Z" unicode="&#xe2;"/><glyph d="M199-10Q157-10 126 0T73 27 40 70 29 125Q29 173 51 206T133 257 299 275H314Q314 335 303 370T271 420 219 435Q185 435 158 418T119 345H64Q64 371 67 398T89 445Q107 465 148 472T239 480Q288 480 326 467T390 428 430 363 444 270V0H359L324 45H319Q306 24 275 7T199-10ZM229 40Q262 40 284 62T314 105V230H299Q227 230 196 204T164 125Q164 83 181 62T229 40ZM128 535Q128 595 147 615T196 635Q219 635 234 625T262 605 288 595Q305 595 314 607T323 635H363Q363 575 345 555T296 535Q274 535 258 545T230 565 203 575Q186 575 177 563T168 535H128Z" unicode="&#xe3;"/><glyph d="M199-10Q157-10 126 0T73 27 40 70 29 125Q29 173 51 206T133 257 299 275H314Q314 335 303 370T271 420 219 435Q185 435 158 418T119 345H64Q64 371 67 398T89 445Q107 465 148 472T239 480Q288 480 326 467T390 428 430 363 444 270V0H359L324 45H319Q306 24 275 7T199-10ZM229 40Q262 40 284 62T314 105V230H299Q227 230 196 204T164 125Q164 83 181 62T229 40ZM339 535Q313 535 298 551T283 591Q283 614 298 630T339 647Q365 647 380 631T395 591Q395 568 380 552T339 535ZM159 535Q133 535 118 551T103 591Q103 614 118 630T159 647Q185 647 200 631T215 591Q215 568 200 552T159 535Z" unicode="&#xe4;"/><glyph d="M199-10Q157-10 126 0T73 27 40 70 29 125Q29 173 51 206T133 257 299 275H314Q314 335 303 370T271 420 219 435Q185 435 158 418T119 345H64Q64 371 67 398T89 445Q107 465 148 472T239 480Q288 480 326 467T390 428 430 363 444 270V0H359L324 45H319Q306 24 275 7T199-10ZM229 40Q262 40 284 62T314 105V230H299Q227 230 196 204T164 125Q164 83 181 62T229 40ZM243 520Q201 520 175 546T148 615Q148 657 174 683T243 710Q285 710 311 684T338 615Q338 573 312 547T243 520ZM243 565Q262 565 275 578T288 615Q288 638 275 651T243 665Q224 665 211 652T198 615Q198 592 211 579T243 565Z" unicode="&#xe5;"/><glyph d="M208-10Q148-10 108 7T48 53 28 120Q28 163 52 194T135 244 303 262H318Q318 323 307 361T273 417 218 435Q184 435 157 418T118 345H63Q63 400 78 429T127 469 218 480Q282 480 326 456T393 389Q422 435 463 457T553 480Q611 480 658 455T734 385 763 280L759 217H458Q459 116 489 76T568 35Q620 35 652 59T711 118L742 95Q728 73 705 49T645 7 553-10Q443-10 383 80 365 46 322 18T208-10ZM228 40Q266 40 287 62T318 105V217H303Q245 217 215 206T174 172 163 120Q163 86 180 63T228 40ZM458 262H628Q628 354 604 394T543 435Q521 435 502 418T470 362 458 262Z" unicode="&#xe6;"/><glyph d="M276-10Q196-10 143 23T63 113 36 235Q36 302 62 357T142 446 276 480Q333 480 372 472T431 445Q450 426 453 394T456 305H426Q422 369 387 402T291 435Q255 435 228 414T186 348 171 235Q171 169 185 125T226 58 296 35Q348 35 380 59T439 118L470 95Q456 73 433 49T372 7 276-10ZM228-188V-142H278Q297-142 307-133T318-110Q318-96 308-87T278-77H233V18H298V-32Q340-32 364-53T388-110Q388-145 364-166T298-188H228Z" unicode="&#xe7;"/><glyph d="M267-10Q197-10 145 22T65 109 37 235Q37 315 66 369T145 452 257 480Q319 480 369 455T448 385 477 280L473 217H172Q172 118 202 77T282 35Q334 35 366 59T425 118L456 95Q442 73 419 49T359 7 267-10ZM172 262H342Q342 361 319 398T257 435Q235 435 216 419T184 366 172 262ZM235 525 129 665H248L290 525H235Z" unicode="&#xe8;"/><glyph d="M267-10Q197-10 145 22T65 109 37 235Q37 315 66 369T145 452 257 480Q319 480 369 455T448 385 477 280L473 217H172Q172 118 202 77T282 35Q334 35 366 59T425 118L456 95Q442 73 419 49T359 7 267-10ZM172 262H342Q342 361 319 398T257 435Q235 435 216 419T184 366 172 262ZM219 524 261 664H380L274 524H219Z" unicode="&#xe9;"/><glyph d="M267-10Q197-10 145 22T65 109 37 235Q37 315 66 369T145 452 257 480Q319 480 369 455T448 385 477 280L473 217H172Q172 118 202 77T282 35Q334 35 366 59T425 118L456 95Q442 73 419 49T359 7 267-10ZM172 262H342Q342 361 319 398T257 435Q235 435 216 419T184 366 172 262ZM111 529 191 654H321L401 529H341L256 609 171 529H111Z" unicode="&#xea;"/><glyph d="M267-10Q197-10 145 22T65 109 37 235Q37 315 66 369T145 452 257 480Q319 480 369 455T448 385 477 280L473 217H172Q172 118 202 77T282 35Q334 35 366 59T425 118L456 95Q442 73 419 49T359 7 267-10ZM172 262H342Q342 361 319 398T257 435Q235 435 216 419T184 366 172 262ZM342 535Q316 535 301 551T286 591Q286 614 301 630T342 647Q368 647 383 631T398 591Q398 568 383 552T342 535ZM162 535Q136 535 121 551T106 591Q106 614 121 630T162 647Q188 647 203 631T218 591Q218 568 203 552T162 535Z" unicode="&#xeb;"/><glyph d="M79 0V340Q79 385 67 412T9 440H-1V470H119Q154 470 173 458T201 418 209 340V0H79ZM372 525 266 665H385L427 525H372Z" unicode="&#xec;"/><glyph d="M79 0V340Q79 385 67 412T9 440H-1V470H119Q154 470 173 458T201 418 209 340V0H79ZM99 525 141 665H260L154 525H99Z" unicode="&#xed;"/><glyph d="M79 0V340Q79 385 67 412T9 440H-1V470H119Q154 470 173 458T201 418 209 340V0H79ZM-11 531 69 656H199L279 531H219L134 611 49 531H-11Z" unicode="&#xee;"/><glyph d="M79 0V340Q79 385 67 412T9 440H-1V470H119Q154 470 173 458T201 418 209 340V0H79ZM54 534Q16 534-2 557T-21 610Q-21 636-5 651T34 666Q72 666 90 643T109 590Q109 564 93 549T54 534ZM239 534Q201 534 183 557T164 610Q164 636 180 651T219 666Q257 666 275 643T294 590Q294 564 278 549T239 534Z" unicode="&#xef;"/><glyph d="M276-10Q196-10 143 23T63 112 36 235Q36 303 62 358T140 447 266 480Q315 480 351 459T406 400Q395 451 380 488T340 555L293 508 253 548 300 595Q279 615 252 620T196 625Q178 625 165 622T143 616L129 648Q147 659 172 664T216 670Q259 670 289 661T344 634L387 680 427 642 385 600Q441 550 478 466T516 270Q516 143 456 67T276-10ZM276 35Q304 35 328 57T366 123 381 235Q381 283 371 329T337 405 276 435Q239 435 216 405T182 329 171 235Q171 168 185 124T224 57 276 35Z" unicode="&#xf0;"/><glyph d="M80 0V340Q80 385 68 412T11 440H1V470H100Q134 470 153 462T184 433Q202 450 235 465T330 480Q393 480 435 461T498 402 520 296V0H390V297Q390 346 378 375T344 417 295 430Q267 430 246 423T210 405V0H80ZM177 544Q177 604 196 624T245 644Q268 644 283 634T311 614 337 604Q354 604 363 616T372 644H412Q412 584 394 564T345 544Q323 544 307 554T279 574 252 584Q235 584 226 572T217 544H177Z" unicode="&#xf1;"/><glyph d="M276-10Q202-10 148 22T65 111 36 235Q36 304 65 359T148 447 276 480Q351 480 404 448T487 360 516 235Q516 167 487 111T405 23 276-10ZM276 35Q311 35 334 61T369 132 381 235Q381 293 370 338T335 409 276 435Q241 435 218 409T183 338 171 235Q171 178 182 133T217 61 276 35ZM259 525 153 665H272L314 525H259Z" unicode="&#xf2;"/><glyph d="M276-10Q202-10 148 22T65 111 36 235Q36 304 65 359T148 447 276 480Q351 480 404 448T487 360 516 235Q516 167 487 111T405 23 276-10ZM276 35Q311 35 334 61T369 132 381 235Q381 293 370 338T335 409 276 435Q241 435 218 409T183 338 171 235Q171 178 182 133T217 61 276 35ZM233 524 275 664H394L288 524H233Z" unicode="&#xf3;"/><glyph d="M276-10Q202-10 148 22T65 111 36 235Q36 304 65 359T148 447 276 480Q351 480 404 448T487 360 516 235Q516 167 487 111T405 23 276-10ZM276 35Q311 35 334 61T369 132 381 235Q381 293 370 338T335 409 276 435Q241 435 218 409T183 338 171 235Q171 178 182 133T217 61 276 35ZM131 524 211 649H341L421 524H361L276 604 191 524H131Z" unicode="&#xf4;"/><glyph d="M276-10Q202-10 148 22T65 111 36 235Q36 304 65 359T148 447 276 480Q351 480 404 448T487 360 516 235Q516 167 487 111T405 23 276-10ZM276 35Q311 35 334 61T369 132 381 235Q381 293 370 338T335 409 276 435Q241 435 218 409T183 338 171 235Q171 178 182 133T217 61 276 35ZM158 535Q158 595 177 615T226 635Q249 635 264 625T292 605 318 595Q335 595 344 607T353 635H393Q393 575 375 555T326 535Q304 535 288 545T260 565 233 575Q216 575 207 563T198 535H158Z" unicode="&#xf5;"/><glyph d="M276-10Q202-10 148 22T65 111 36 235Q36 304 65 359T148 447 276 480Q351 480 404 448T487 360 516 235Q516 167 487 111T405 23 276-10ZM276 35Q311 35 334 61T369 132 381 235Q381 293 370 338T335 409 276 435Q241 435 218 409T183 338 171 235Q171 178 182 133T217 61 276 35ZM366 535Q340 535 325 551T310 591Q310 614 325 630T366 647Q392 647 407 631T422 591Q422 568 407 552T366 535ZM186 535Q160 535 145 551T130 591Q130 614 145 630T186 647Q212 647 227 631T242 591Q242 568 227 552T186 535Z" unicode="&#xf6;"/><glyph d="M44 297V362H504V297H44ZM274 123Q248 123 233 139T218 179Q218 202 233 218T274 235Q300 235 315 219T330 179Q330 156 315 140T274 123ZM274 425Q248 425 233 441T218 481Q218 504 233 520T274 537Q300 537 315 521T330 481Q330 458 315 442T274 425Z" unicode="&#xf7;"/><glyph d="M276-10Q243-10 214-3T160 16L148 0H56L100 60Q36 129 36 235 36 304 65 359T148 447 276 480Q309 480 338 473T392 454L404 470H496L451 410Q483 377 499 332T516 235Q516 167 487 111T405 23 276-10ZM276 35Q311 35 334 61T369 132 381 235Q381 274 375 307L205 77Q231 35 276 35ZM176 162 346 392Q333 412 316 423T276 435Q241 435 218 409T183 338 171 235Q171 215 172 197T176 162Z" unicode="&#xf8;"/><glyph d="M255-10Q193-10 152 9T90 69 70 174V340Q70 385 58 412T0 440H-10V470H110Q145 470 164 458T192 418 200 340V173Q200 121 210 91T239 48 285 35Q309 35 327 46T357 72 375 100V470H505V0H420L385 45H380Q361 24 330 7T255-10ZM261 499 155 639H274L316 499H261Z" unicode="&#xf9;"/><glyph d="M255-10Q193-10 152 9T90 69 70 174V340Q70 385 58 412T0 440H-10V470H110Q145 470 164 458T192 418 200 340V173Q200 121 210 91T239 48 285 35Q309 35 327 46T357 72 375 100V470H505V0H420L385 45H380Q361 24 330 7T255-10ZM241 500 283 640H402L296 500H241Z" unicode="&#xfa;"/><glyph d="M255-10Q193-10 152 9T90 69 70 174V340Q70 385 58 412T0 440H-10V470H110Q145 470 164 458T192 418 200 340V173Q200 121 210 91T239 48 285 35Q309 35 327 46T357 72 375 100V470H505V0H420L385 45H380Q361 24 330 7T255-10ZM143 530 223 655H353L433 530H373L288 610 203 530H143Z" unicode="&#xfb;"/><glyph d="M255-10Q193-10 152 9T90 69 70 174V340Q70 385 58 412T0 440H-10V470H110Q145 470 164 458T192 418 200 340V173Q200 121 210 91T239 48 285 35Q309 35 327 46T357 72 375 100V470H505V0H420L385 45H380Q361 24 330 7T255-10ZM366 770Q340 770 325 786T310 826Q310 849 325 865T366 882Q392 882 407 866T422 826Q422 803 407 787T366 770ZM186 770Q160 770 145 786T130 826Q130 849 145 865T186 882Q212 882 227 866T242 826Q242 803 227 787T186 770Z" unicode="&#xfc;"/><glyph d="M92-200V-165Q144-165 179-145T236-68L257-14 77 380Q61 417 38 436T-16 460V480H72Q117 480 151 459T202 400L317 148 439 470H492L290-65Q270-119 247-148T195-189 132-200H92ZM258 500 300 640H419L313 500H258Z" unicode="&#xfd;"/><glyph d="M60-190V530Q60 575 48 602T-10 630H-20V660H100Q135 660 154 648T182 608 190 530V445Q207 459 234 469T304 480Q372 480 416 449T482 363 504 235Q504 163 482 108T413 21 294-10Q262-10 236-4T190 10V-190H60ZM259 35Q295 35 319 59T356 128 369 235Q369 298 357 342T322 411 269 435Q243 435 224 427T190 405V50Q208 43 226 39T259 35Z" unicode="&#xfe;"/><glyph d="M92-200V-165Q144-165 179-145T236-68L257-14 77 380Q61 417 38 436T-16 460V480H72Q117 480 151 459T202 400L317 148 439 470H492L290-65Q270-119 247-148T195-189 132-200H92ZM375 775Q349 775 334 791T319 831Q319 854 334 870T375 887Q401 887 416 871T431 831Q431 808 416 792T375 775ZM195 775Q169 775 154 791T139 831Q139 854 154 870T195 887Q221 887 236 871T251 831Q251 808 236 792T195 775Z" unicode="&#xff;"/><glyph d="M64 227V292H558V227H64Z" unicode="&#x2013;"/><glyph d="M64 227V292H828V227H64Z" unicode="&#x2014;"/><glyph d="M109 420Q76 420 60 444T43 498Q43 555 68 600T158 688L176 664Q160 653 141 635T108 593 94 539L109 542Q138 542 154 525T170 481Q170 454 154 437T109 420Z" unicode="&#x2018;"/><glyph d="M66 412 48 436Q65 447 84 465T116 507 130 561L115 558Q86 558 70 575T54 619Q54 646 70 663T115 680Q148 680 164 656T181 602Q181 545 156 500T66 412Z" unicode="&#x2019;"/><glyph d="M63-160 45-136Q62-125 81-107T113-65 127-11L112-14Q83-14 67 3T51 47Q51 74 67 91T112 108Q145 108 161 84T178 30Q178-27 153-72T63-160Z" unicode="&#x201a;"/><glyph d="M291 420Q258 420 242 444T225 498Q225 555 250 600T340 688L358 664Q342 653 323 635T290 593 276 539L291 542Q320 542 336 525T352 481Q352 454 336 437T291 420ZM109 420Q76 420 60 444T43 498Q43 555 68 600T158 688L176 664Q160 653 141 635T108 593 94 539L109 542Q138 542 154 525T170 481Q170 454 154 437T109 420Z" unicode="&#x201c;"/><glyph d="M248 412 230 436Q247 447 266 465T298 507 312 561L297 558Q268 558 252 575T236 619Q236 646 252 663T297 680Q330 680 346 656T363 602Q363 545 338 500T248 412ZM66 412 48 436Q65 447 84 465T116 507 130 561L115 558Q86 558 70 575T54 619Q54 646 70 663T115 680Q148 680 164 656T181 602Q181 545 156 500T66 412Z" unicode="&#x201d;"/><glyph d="M245-160 227-136Q244-125 263-107T295-65 309-11L294-14Q265-14 249 3T233 47Q233 74 249 91T294 108Q327 108 343 84T360 30Q360-27 335-72T245-160ZM63-160 45-136Q62-125 81-107T113-65 127-11L112-14Q83-14 67 3T51 47Q51 74 67 91T112 108Q145 108 161 84T178 30Q178-27 153-72T63-160Z" unicode="&#x201e;"/><glyph d="M175 207Q116 207 78 241T40 330Q40 384 78 418T175 453Q234 453 272 419T310 330Q310 276 272 242T175 207Z" unicode="&#x2022;"/><glyph d="M189 30 31 225 189 420H253L156 226 253 30H189Z" unicode="&#x2039;"/><glyph d="M41 30 138 226 41 420H105L263 225 105 30H41Z" unicode="&#x203a;"/></font>
</defs>
</svg>
