<svg xmlns="http://www.w3.org/2000/svg"><defs><font><glyph unicode="&#x20;"/><glyph d="M371 446H194L146 1462H419L371 446ZM134 124Q134 206 176 239T281 273Q342 273 385 240T428 124Q428 44 385 9T281-27Q219-27 177 8T134 124Z" unicode="&#x21;"/><glyph d="M364 1462 324 934H173L134 1462H364ZM758 1462 719 934H568L529 1462H758Z" unicode="&#x26;&#x71;&#x75;&#x6f;&#x74;&#x3b;"/><glyph d="M990 872 934 586H1204V419H902L821 0H643L725 419H475L396 0H222L299 419H49V586H331L388 872H123V1039H418L498 1461H676L596 1039H848L929 1461H1102L1022 1039H1274V872H990ZM507 586H757L814 872H563L507 586Z" unicode="&#x23;"/><glyph d="M518-119V87Q394 89 290 109T109 163V376Q186 340 299 311T518 278V653Q373 702 283 755T150 878 108 1048Q108 1150 159 1223T303 1340 518 1391V1554H648V1394Q759 1391 853 1370T1034 1310L961 1124Q886 1154 805 1173T648 1199V833Q770 793 865 747T1015 632 1070 450Q1070 303 962 208T648 93V-119H518ZM648 286Q744 298 791 336T838 437Q838 479 819 508T758 560 648 605V286ZM518 882V1195Q460 1189 420 1171T360 1124 340 1055Q340 1011 358 980T415 926 518 882Z" unicode="&#x24;"/><glyph d="M404 1483Q565 1483 648 1364T731 1026Q731 809 652 687T404 565Q247 565 165 687T83 1026Q83 1244 160 1363T404 1483ZM405 1319Q340 1319 310 1246T279 1025Q279 878 309 804T405 729Q471 729 503 803T536 1025Q536 1172 504 1245T405 1319ZM1386 1462 575 0H382L1193 1462H1386ZM1359 898Q1520 898 1603 779T1687 441Q1687 225 1608 103T1359-19Q1202-19 1120 103T1038 441Q1038 659 1115 778T1359 898ZM1360 734Q1295 734 1265 661T1234 440Q1234 293 1264 219T1360 144Q1427 144 1459 217T1491 440Q1491 587 1459 660T1360 734Z" unicode="&#x25;"/><glyph d="M629 1484Q742 1484 827 1447T961 1340 1009 1168Q1009 1033 925 940T713 774L1058 438Q1107 505 1139 585T1194 755H1437Q1406 631 1351 511T1212 290L1509 0H1208L1060 145Q998 95 928 58T774 1 591-20Q438-20 327 29T157 169 97 387Q97 492 132 567T234 700 392 810Q342 867 305 921T249 1032 229 1156Q229 1258 279 1331T419 1444 629 1484ZM531 667Q473 630 431 593T367 510 344 405Q344 302 416 242T604 182Q705 182 781 212T915 289L531 667ZM625 1298Q554 1298 503 1261T451 1146Q451 1083 484 1028T578 908Q683 966 734 1022T786 1152Q786 1222 739 1260T625 1298Z" unicode="&#x26;&#x61;&#x6d;&#x70;&#x3b;"/><glyph d="M364 1462 324 934H173L134 1462H364Z" unicode="&#x27;"/><glyph d="M82 561Q82 729 114 889T214 1194 383 1462H588Q445 1271 373 1039T300 563Q300 404 332 248T428-52 586-324H383Q281-204 214-62T115 238 82 561Z" unicode="&#x28;"/><glyph d="M567 562Q567 396 535 238T437-62 266-324H64Q158-197 222-52T318 249 350 564Q350 726 318 884T221 1188 62 1462H266Q370 1339 436 1194T535 890 567 562Z" unicode="&#x29;"/><glyph d="M670 1556 630 1174 1014 1283 1044 1070 685 1038 918 727 724 622 555 957 404 623 202 727 433 1038 76 1071 110 1283 487 1174 447 1556H670Z" unicode="&#x2a;"/><glyph d="M673 811H1073V633H673V229H495V633H96V811H495V1219H673V811Z" unicode="&#x2b;"/><glyph d="M405 238 419 215Q401 143 373 60T312-106 245-264H73Q94-183 113-95T149 80 176 238H405Z" unicode="&#x2c;"/><glyph d="M72 450V649H588V450H72Z" unicode="&#x2d;"/><glyph d="M134 124Q134 206 176 239T280 273Q341 273 384 240T428 124Q428 44 385 9T280-27Q219-27 177 8T134 124Z" unicode="&#x2e;"/><glyph d="M783 1462 238 0H18L563 1462H783Z" unicode="&#x2f;"/><glyph d="M1082 732Q1082 555 1055 416T968 179 814 31 584-20Q415-20 305 69T142 327 89 732Q89 968 137 1136T295 1395 584 1485Q754 1485 864 1396T1028 1138 1082 732ZM326 732Q326 547 350 423T432 238 584 176Q679 176 736 237T818 422 844 732Q844 916 819 1040T737 1226 584 1289Q488 1289 432 1227T351 1040 326 732Z" unicode="&#x30;"/><glyph d="M783 0H547V941Q547 988 548 1035T550 1127 555 1213Q534 1190 504 1163T439 1107L271 973 153 1122 587 1462H783V0Z" unicode="&#x31;"/><glyph d="M1082 0H92V177L471 561Q581 673 652 754T757 909 792 1068Q792 1174 731 1228T570 1283Q475 1283 395 1246T228 1139L99 1294Q160 1346 229 1389T385 1457 581 1483Q720 1483 821 1434T976 1296 1031 1091Q1031 973 984 873T850 676 643 464L390 217V206H1082V0Z" unicode="&#x32;"/><glyph d="M1026 1128Q1026 1029 986 956T877 837 716 770V763Q891 741 980 653T1070 420Q1070 293 1009 194T822 37 498-20Q379-20 278-1T85 60V269Q178 223 283 198T482 173Q665 173 743 241T821 431Q821 509 781 559T656 634 438 659H309V848H439Q566 848 643 878T754 963 789 1089Q789 1183 728 1235T547 1288Q473 1288 413 1271T301 1228 204 1172L91 1335Q174 1397 289 1440T557 1483Q782 1483 904 1387T1026 1128Z" unicode="&#x33;"/><glyph d="M1135 321H937V0H705V321H40V499L708 1466H937V516H1135V321ZM705 516V879Q705 924 706 970T710 1060 714 1139 717 1200H709Q690 1160 667 1119T618 1038L258 516H705Z" unicode="&#x34;"/><glyph d="M589 914Q730 914 837 864T1005 716 1065 477Q1065 323 1000 212T809 40 502-20Q387-20 288 0T116 60V272Q191 230 296 204T497 177Q599 177 672 207T784 299 824 456Q824 582 744 650T492 719Q432 719 365 709T252 686L149 747 204 1462H964V1255H411L379 891Q415 899 465 906T589 914Z" unicode="&#x35;"/><glyph d="M94 623Q94 752 112 877T176 1111 300 1303 501 1433 792 1481Q836 1481 891 1477T982 1464V1269Q943 1280 897 1286T804 1292Q620 1292 517 1223T370 1033 319 757H331Q361 807 406 846T516 908 667 932Q795 932 890 879T1036 724 1088 479Q1088 324 1030 212T864 40 608-20Q499-20 406 20T242 140 133 340 94 623ZM604 174Q718 174 787 248T857 477Q857 602 796 675T611 748Q527 748 464 712T367 621 332 509Q332 451 349 392T400 284 485 204 604 174Z" unicode="&#x36;"/><glyph d="M259 0 833 1256H74V1462H1086V1301L512 0H259Z" unicode="&#x37;"/><glyph d="M585 1482Q712 1482 814 1443T976 1325 1036 1132Q1036 1043 1000 977T901 862 762 774Q848 732 920 678T1037 550 1082 379Q1082 256 1020 167T846 29 587-20Q428-20 316 27T146 161 88 371Q88 472 128 546T235 674 384 765Q315 806 258 857T168 976 134 1133Q134 1247 195 1324T358 1442 585 1482ZM312 380Q312 284 380 222T583 160Q717 160 787 221T857 382Q857 446 822 495T727 582 595 654L563 667Q485 634 429 593T343 499 312 380ZM583 1301Q486 1301 424 1254T361 1117Q361 1054 391 1009T474 932 589 871Q650 898 699 930T778 1008 808 1118Q808 1206 746 1253T583 1301Z" unicode="&#x38;"/><glyph d="M1080 839Q1080 709 1062 584T998 350 873 158 672 27 380-20Q337-20 281-16T188-3V193Q226 182 273 176T368 169Q553 169 656 238T803 428 853 703H841Q812 655 768 616T659 553 501 529Q375 529 282 582T137 736 85 981Q85 1136 144 1248T311 1420 565 1481Q675 1481 768 1442T932 1322 1041 1121 1080 839ZM568 1287Q457 1287 387 1213T317 984Q317 859 377 786T561 713Q647 713 709 748T806 839 841 951Q841 1010 825 1069T774 1177 689 1256 568 1287Z" unicode="&#x39;"/><glyph d="M134 124Q134 206 176 239T280 273Q341 273 384 240T428 124Q428 44 385 9T280-27Q219-27 177 8T134 124ZM134 980Q134 1063 176 1097T280 1131Q341 1131 384 1097T428 980Q428 901 385 866T280 830Q219 830 177 865T134 980Z" unicode="&#x3a;"/><glyph d="M396 238 411 215Q393 143 365 60T303-106 237-264H64Q85-184 104-95T141 80 168 238H396ZM132 980Q132 1063 174 1097T278 1131Q340 1131 383 1097T426 980Q426 901 383 866T278 830Q217 830 175 865T132 980Z" unicode="&#x3b;"/><glyph d="M1073 223 96 655V774L1073 1260V1066L340 723 1073 416V223Z" unicode="&#x26;&#x6c;&#x74;&#x3b;"/><glyph d="M102 833V1009H1067V833H102ZM102 434V611H1067V434H102Z" unicode="&#x3d;"/><glyph d="M96 416 829 722 96 1066V1260L1073 774V655L96 223V416Z" unicode="&#x26;&#x67;&#x74;&#x3b;"/><glyph d="M282 446V509Q282 583 299 638T356 741 464 843Q534 898 575 938T635 1018 654 1113Q654 1198 597 1242T435 1287Q343 1287 262 1261T102 1196L19 1372Q110 1422 216 1452T451 1483Q655 1483 766 1384T878 1123Q878 1034 850 971T768 854 636 741Q573 691 540 655T494 581 481 492V446H282ZM244 124Q244 206 286 239T391 273Q451 273 494 240T537 124Q537 44 494 9T391-27Q329-27 287 8T244 124Z" unicode="&#x3f;"/><glyph d="M1727 732Q1727 637 1705 546T1638 381 1526 263 1366 219Q1282 219 1226 264T1153 375H1140Q1100 310 1030 265T857 219Q687 219 596 325T504 607Q504 743 560 847T719 1012 963 1072Q1056 1072 1149 1056T1297 1020L1277 609Q1275 580 1275 560T1274 531Q1274 434 1305 402T1378 369Q1434 369 1472 418T1531 550 1551 733Q1551 914 1478 1042T1276 1237 984 1304Q816 1304 687 1251T469 1102 335 875 290 585Q290 391 359 256T562 50 891-20Q1012-20 1132 6T1351 70V-91Q1258-130 1143-154T895-178Q648-178 473-88T204 172 110 579Q110 769 170 929T345 1209 620 1395 983 1461Q1200 1461 1368 1373T1631 1121 1727 732ZM694 603Q694 481 744 425T880 369Q990 369 1038 450T1094 663L1106 904Q1080 911 1045 915T970 920Q870 920 810 875T722 757 694 603Z" unicode="&#x40;"/><glyph d="M1098 0 955 406H396L253 0H0L544 1468H810L1353 0H1098ZM893 612 754 1012Q746 1038 731 1085T701 1182 676 1266Q666 1225 652 1175T624 1080 603 1012L463 612H893Z" unicode="&#x41;"/><glyph d="M192 1462H627Q910 1462 1054 1380T1198 1097Q1198 1013 1169 946T1083 835 945 776V766Q1030 751 1096 713T1201 604 1240 420Q1240 286 1177 192T996 49 717 0H192V1462ZM432 859H662Q825 859 888 912T951 1067Q951 1171 877 1217T640 1263H432V859ZM432 665V201H685Q853 201 921 266T989 442Q989 510 959 560T859 637 673 665H432Z" unicode="&#x42;"/><glyph d="M815 1279Q710 1279 628 1241T488 1132 401 959 371 730Q371 560 419 438T565 250 813 184Q906 184 994 202T1176 251V47Q1087 12 996-4T786-20Q562-20 415 73T195 335 122 731Q122 897 168 1035T302 1273 519 1428 816 1483Q926 1483 1032 1459T1230 1389L1146 1191Q1070 1227 987 1253T815 1279Z" unicode="&#x43;"/><glyph d="M1379 745Q1379 498 1287 333T1020 84 598 0H192V1462H642Q869 1462 1034 1381T1289 1140 1379 745ZM1129 738Q1129 918 1073 1034T907 1206 637 1263H432V201H602Q867 201 998 336T1129 738Z" unicode="&#x44;"/><glyph d="M1020 0H192V1462H1020V1260H432V863H983V662H432V203H1020V0Z" unicode="&#x45;"/><glyph d="M430 0H192V1462H1018V1260H430V804H980V603H430V0Z" unicode="&#x46;"/><glyph d="M782 794H1328V60Q1213 22 1090 1T814-20Q591-20 437 68T202 325 122 732Q122 961 211 1129T470 1390 882 1483Q1001 1483 1112 1460T1317 1395L1233 1197Q1159 1232 1067 1256T876 1280Q719 1280 606 1212T431 1021 370 729Q370 566 419 443T572 252 843 183Q926 183 984 192T1091 212V589H782V794Z" unicode="&#x47;"/><glyph d="M1345 0H1106V660H432V0H192V1462H432V864H1106V1462H1345V0Z" unicode="&#x48;"/><glyph d="M192 0V1462H432V0H192Z" unicode="&#x49;"/><glyph d="M10-407Q-45-407-86-401T-158-383V-182Q-126-190-89-196T-10-202Q45-202 90-181T161-105 188 50V1462H428V58Q428-105 376-207T230-358 10-407Z" unicode="&#x4a;"/><glyph d="M1307 0H1031L576 664 432 547V0H192V1462H432V763Q476 817 521 871T611 979L1023 1462H1294L748 822 1307 0Z" unicode="&#x4b;"/><glyph d="M192 0V1462H432V204H1053V0H192Z" unicode="&#x4c;"/><glyph d="M823 0 402 1221H393Q396 1180 400 1109T407 957 410 802V0H192V1462H529L934 295H940L1359 1462H1695V0H1466V814Q1466 881 1468 959T1474 1107 1480 1219H1472L1035 0H823Z" unicode="&#x4d;"/><glyph d="M1412 0H1117L401 1167H392Q396 1108 399 1042T405 906 410 764V0H192V1462H485L1200 303H1207Q1205 354 1202 420T1197 556 1193 693V1462H1412V0Z" unicode="&#x4e;"/><glyph d="M1490 733Q1490 564 1448 426T1320 188 1107 34 807-20Q632-20 504 34T291 188 164 427 122 735Q122 961 196 1129T423 1391 809 1485Q1037 1485 1188 1392T1414 1131 1490 733ZM374 733Q374 564 420 441T561 251 807 184Q958 184 1053 250T1193 440 1238 733Q1238 990 1136 1135T809 1281Q659 1281 563 1215T420 1027 374 733Z" unicode="&#x4f;"/><glyph d="M617 1462Q900 1462 1030 1346T1160 1021Q1160 926 1131 841T1034 690 858 586 588 548H432V0H192V1462H617ZM601 1263H432V748H563Q676 748 755 774T875 859 916 1012Q916 1139 840 1201T601 1263Z" unicode="&#x50;"/><glyph d="M1490 733Q1490 562 1446 421T1314 180 1092 29L1440-348H1120L845-19Q835-19 826-19T807-20Q632-20 504 34T291 188 164 427 122 735Q122 961 196 1129T423 1391 809 1485Q1037 1485 1188 1392T1414 1131 1490 733ZM374 733Q374 564 420 441T561 251 807 184Q958 184 1053 250T1193 440 1238 733Q1238 990 1136 1135T809 1281Q659 1281 563 1215T420 1027 374 733Z" unicode="&#x51;"/><glyph d="M603 1462Q792 1462 915 1416T1099 1276 1160 1037Q1160 929 1120 853T1015 727 876 647L1291 0H1020L667 586H432V0H192V1462H603ZM587 1262H432V784H598Q765 784 840 846T916 1029Q916 1156 836 1209T587 1262Z" unicode="&#x52;"/><glyph d="M1036 398Q1036 268 973 174T791 30 508-20Q428-20 355-11T218 15 100 58V284Q189 245 299 214T523 182Q616 182 677 206T769 276 799 383Q799 448 764 493T659 575 482 656Q410 685 345 722T228 809 148 927 118 1089Q118 1213 177 1301T345 1436 599 1483Q714 1483 815 1459T1015 1391L939 1198Q849 1235 765 1257T592 1279Q516 1279 463 1256T383 1192 355 1093Q355 1029 386 986T484 906 656 826Q777 776 861 721T991 590 1036 398Z" unicode="&#x53;"/><glyph d="M699 0H458V1258H30V1462H1126V1258H699V0Z" unicode="&#x54;"/><glyph d="M1340 1462V516Q1340 363 1276 242T1081 51 754-20Q473-20 327 127T180 520V1462H420V541Q420 358 506 271T763 184Q881 184 955 225T1065 347 1101 542V1462H1340Z" unicode="&#x55;"/><glyph d="M1276 1462 765 0H511L0 1462H246L554 546Q568 506 584 449T615 334 638 231Q646 276 660 334T691 449 721 547L1030 1462H1276Z" unicode="&#x56;"/><glyph d="M1921 1462 1539 0H1277L1033 876Q1024 908 1013 952T992 1042 974 1126 963 1186Q961 1165 954 1127T938 1044 917 954 897 875L657 0H396L15 1462H256L467 605Q477 564 487 517T507 421 525 328 538 245Q543 283 551 329T568 424 588 518 610 599L848 1462H1082L1325 596Q1336 559 1346 513T1367 419 1385 326 1398 245Q1405 294 1416 357T1441 485 1469 605L1679 1462H1921Z" unicode="&#x57;"/><glyph d="M1271 0H998L630 599 260 0H3L489 758 36 1462H301L641 908 979 1462H1236L781 751 1271 0Z" unicode="&#x58;"/><glyph d="M606 795 953 1462H1212L726 568V0H487V559L0 1462H261L606 795Z" unicode="&#x59;"/><glyph d="M1115 0H64V165L808 1258H87V1462H1095V1298L351 204H1115V0Z" unicode="&#x5a;"/><glyph d="M623-324H155V1462H623V1289H366V-149H623V-324Z" unicode="&#x5b;"/><glyph d="M237 1462 783 0H562L17 1462H237Z" unicode="&#x5c;"/><glyph d="M51-149H308V1289H51V1462H520V-324H51V-149Z" unicode="&#x5d;"/><glyph d="M64 535 502 1472H622L1108 535H914L566 1229 256 535H64Z" unicode="&#x5e;"/><glyph d="M874-315H-4V-184H874V-315Z" unicode="&#x5f;"/><glyph d="M352 1569Q379 1523 418 1467T499 1358 573 1267V1241H416Q378 1269 331 1309T236 1394 147 1479 82 1549V1569H352Z" unicode="&#x60;"/><glyph d="M602 1128Q812 1128 919 1035T1027 745V0H860L815 157H807Q760 97 710 58T595 0 435-20Q336-20 258 16T135 128 90 318Q90 489 217 575T603 670L795 677V735Q795 850 742 899T591 948Q508 948 430 924T278 865L202 1031Q283 1074 386 1101T602 1128ZM794 529 651 524Q475 518 404 464T333 316Q333 234 382 197T511 159Q633 159 713 228T794 433V529Z" unicode="&#x61;"/><glyph d="M403 1556V1181Q403 1116 400 1054T393 956H403Q448 1028 528 1077T735 1127Q932 1127 1052 983T1172 555Q1172 367 1117 239T963 46 729-20Q603-20 526 26T404 135H387L344 0H168V1556H403ZM673 936Q573 936 515 896T430 777 403 575V554Q403 369 461 271T675 173Q798 173 864 272T930 558Q930 746 865 841T673 936Z" unicode="&#x62;"/><glyph d="M614-20Q457-20 342 41T165 228 103 548Q103 750 171 878T359 1067 636 1128Q735 1128 815 1109T952 1061L882 873Q821 898 757 915T634 932Q537 932 473 889T377 761 345 550Q345 428 377 345T472 219 627 176Q718 176 790 198T926 255V51Q863 15 791-2T614-20Z" unicode="&#x63;"/><glyph d="M540-20Q342-20 223 124T103 551Q103 836 224 982T545 1128Q629 1128 692 1106T800 1045 878 960H889Q884 991 878 1049T871 1158V1556H1107V0H923L881 151H871Q841 103 796 65T688 3 540-20ZM606 171Q757 171 819 258T883 519V550Q883 736 823 835T604 935Q477 935 411 833T344 547Q344 364 410 268T606 171Z" unicode="&#x64;"/><glyph d="M609 1128Q757 1128 863 1067T1026 894 1083 626V500H344Q348 339 430 252T662 165Q768 165 852 185T1027 246V55Q944 16 858-2T652-20Q489-20 366 43T173 233 103 546Q103 732 166 862T343 1060 609 1128ZM609 951Q498 951 430 879T349 668H853Q852 751 826 815T746 915 609 951Z" unicode="&#x65;"/><glyph d="M721 928H452V0H217V928H36V1041L217 1110V1187Q217 1328 261 1411T389 1530 589 1567Q665 1567 728 1555T834 1526L773 1348Q739 1359 697 1368T607 1378Q527 1378 490 1328T452 1182V1107H721V928Z" unicode="&#x66;"/><glyph d="M484-492Q259-492 139-411T19-184Q19-82 83-12T266 86Q221 106 189 148T156 243Q156 305 191 349T296 434Q209 471 157 554T104 751Q104 871 155 955T304 1084 541 1129Q571 1129 606 1126T672 1118 719 1108H1102V977L914 942Q941 904 957 856T973 750Q973 578 855 480T528 381Q478 383 431 389 395 367 376 341T357 281Q357 254 376 238T432 213 524 205H715Q897 205 993 128T1089-98Q1089-287 933-389T484-492ZM493-327Q616-327 700-303T827-235 870-129Q870-75 843-46T762-6 628 5H454Q389 5 339-15T262-75 234-169Q234-245 301-286T493-327ZM539 535Q642 535 692 591T742 751Q742 863 691 919T538 975Q439 975 388 918T336 749Q336 648 387 592T539 535Z" unicode="&#x67;"/><glyph d="M403 1556V1165Q403 1104 400 1046T392 956H405Q440 1014 491 1051T605 1108 741 1127Q868 1127 957 1085T1093 953 1141 722V0H906V678Q906 807 853 871T689 936Q582 936 520 892T430 761 403 550V0H168V1556H403Z" unicode="&#x68;"/><glyph d="M403 1107V0H168V1107H403ZM287 1531Q341 1531 380 1502T420 1402Q420 1332 381 1303T287 1273Q231 1273 193 1302T154 1402Q154 1473 192 1502T287 1531Z" unicode="&#x69;"/><glyph d="M57-492Q5-492-42-485T-121-467V-279Q-87-289-55-294T18-299Q83-299 125-263T168-126V1107H403V-147Q403-248 368-326T256-448 57-492ZM154 1402Q154 1473 192 1502T287 1531Q341 1531 380 1502T420 1402Q420 1332 381 1303T287 1273Q231 1273 193 1302T154 1402Z" unicode="&#x6a;"/><glyph d="M403 1556V804Q403 753 399 693T391 579H396Q422 614 458 661T528 743L866 1107H1136L693 631 1165 0H889L535 486 403 373V0H168V1556H403Z" unicode="&#x6b;"/><glyph d="M404 0H168V1556H404V0Z" unicode="&#x6c;"/><glyph d="M1419 1128Q1605 1128 1699 1032T1794 724V0H1559V682Q1559 808 1510 872T1361 936Q1221 936 1160 847T1098 587V0H863V682Q863 766 842 822T776 907 665 936Q568 936 511 892T428 763 403 553V0H168V1107H351L384 958H397Q431 1016 481 1053T594 1109 723 1128Q847 1128 932 1085T1059 952H1077Q1129 1042 1222 1085T1419 1128Z" unicode="&#x6d;"/><glyph d="M745 1128Q932 1128 1036 1032T1141 722V0H906V678Q906 807 853 871T689 936Q528 936 466 837T403 550V0H168V1107H351L384 957H397Q433 1015 486 1052T606 1109 745 1128Z" unicode="&#x6e;"/><glyph d="M1148 556Q1148 418 1112 311T1007 131 841 19 622-20Q508-20 413 18T249 130 141 311 103 556Q103 739 166 866T348 1061 629 1128Q782 1128 899 1061T1082 866 1148 556ZM345 556Q345 435 374 349T466 218 626 172Q724 172 786 217T877 349 906 556Q906 677 877 761T786 890 625 935Q479 935 412 837T345 556Z" unicode="&#x6f;"/><glyph d="M736 1128Q933 1128 1052 984T1172 556Q1172 368 1117 240T962 46 730-20Q646-20 584 2T478 59 404 137H390Q395 97 399 49T404-40V-491H168V1107H360L393 954H404Q435 1001 479 1041T587 1104 736 1128ZM673 936Q576 936 518 898T433 782 404 589V556Q404 433 429 348T514 218 676 173Q762 173 818 220T903 354 931 559Q931 738 868 837T673 936Z" unicode="&#x70;"/><glyph d="M871-491V-21Q871 19 873 66T882 152H870Q825 79 745 30T536-20Q341-20 222 124T103 552Q103 740 158 868T312 1062 544 1128Q671 1128 750 1079T878 957H886L912 1107H1107V-491H871ZM606 169Q706 169 766 207T853 322 882 515V551Q882 739 821 837T604 935Q472 935 408 833T344 548Q344 364 408 267T606 169Z" unicode="&#x71;"/><glyph d="M729 1128Q757 1128 790 1125T847 1117L825 897Q804 903 774 906T719 909Q656 909 599 889T498 827 429 723 404 579V0H168V1107H352L384 912H395Q428 971 477 1020T589 1098 729 1128Z" unicode="&#x72;"/><glyph d="M912 316Q912 207 859 132T705 19 456-20Q340-20 257-4T99 47V250Q178 213 276 186T463 159Q579 159 630 195T681 293Q681 329 661 357T585 416 422 490Q317 532 245 574T136 675 99 828Q99 975 215 1051T524 1128Q626 1128 716 1108T894 1048L820 871Q745 904 670 925T516 947Q425 947 378 919T330 839Q330 800 353 773T432 719 590 652Q689 614 761 573T873 471 912 316Z" unicode="&#x73;"/><glyph d="M580 170Q626 170 671 178T753 199V21Q714 4 652-8T523-20Q429-20 354 11T235 120 191 333V928H40V1033L202 1116 279 1353H427V1107H744V928H427V336Q427 252 469 211T580 170Z" unicode="&#x74;"/><glyph d="M1133 1107V0H948L916 149H903Q868 92 814 55T694-1 555-20Q430-20 342 22T206 154 159 384V1107H395V428Q395 299 447 235T611 171Q718 171 781 215T870 345 897 556V1107H1133Z" unicode="&#x75;"/><glyph d="M421 0 0 1107H249L477 457Q499 395 517 323T542 202H550Q557 253 577 324T618 457L846 1107H1094L673 0H421Z" unicode="&#x76;"/><glyph d="M1073 1 933 516Q923 554 909 608T881 719 856 826 838 902H830Q825 875 814 826T789 719 762 606 737 512L590 1H332L22 1108H260L404 558Q418 502 431 437T455 313 470 216H478Q482 243 489 284T505 371 523 457 540 523L710 1108H967L1130 523Q1141 485 1154 428T1177 313 1191 217H1199Q1203 251 1213 309T1238 434 1267 558L1414 1108H1648L1336 1H1073Z" unicode="&#x77;"/><glyph d="M413 566 43 1107H311L564 718 818 1107H1085L713 566 1104 0H835L564 415 292 0H25L413 566Z" unicode="&#x78;"/><glyph d="M1 1107H257L484 475Q499 432 511 391T533 309 549 229H555Q565 281 583 345T625 475L843 1107H1096L621-152Q580-260 521-336T380-452 195-492Q145-492 108-487T45-475V-287Q66-292 98-296T164-300Q227-300 273-275T351-205 404-101L443 3 1 1107Z" unicode="&#x79;"/><glyph d="M909 0H68V145L627 926H102V1107H893V947L345 181H909V0Z" unicode="&#x7a;"/><glyph d="M714-324Q564-323 472-291T338-193 296-24V287Q296 355 267 396T182 456 44 475V664Q126 664 182 682T267 742 296 851V1164Q296 1267 339 1333T474 1430 714 1462V1282Q650 1280 604 1264T534 1212 510 1112V812Q510 713 454 654T285 576V564Q398 547 454 488T510 329V26Q510-37 534-73T604-125 714-142V-324Z" unicode="&#x7b;"/><glyph d="M474 1554H653V-480H474V1554Z" unicode="&#x7c;"/><glyph d="M75-324V-142Q138-140 183-125T253-73 278 27V328Q278 427 335 486T503 563V575Q391 594 335 653T278 811V1113Q278 1176 254 1212T185 1265 75 1282V1462Q224 1462 316 1430T450 1332 492 1163V852Q492 784 521 743T606 683 744 664V475Q662 475 606 456T521 396 492 288V-25Q492-127 449-193T314-292 75-324Z" unicode="&#x7d;"/><glyph d="M552 637Q479 669 428 681T330 694Q273 694 210 659T96 573V763Q146 817 208 844T347 871Q408 871 467 859T619 807Q693 775 743 763T839 751Q898 751 960 785T1073 871V682Q1024 629 962 601T823 573Q763 573 704 585T552 637Z" unicode="&#x7e;"/><glyph unicode="&#xa0;"/><glyph d="M190 644H368L416-371H142L190 644ZM428 967Q428 885 385 851T280 817Q220 817 177 851T134 967Q134 1046 177 1081T280 1117Q342 1117 385 1082T428 967Z" unicode="&#xa1;"/><glyph d="M731 1483V1322Q818 1318 889 1300T1015 1256L946 1069Q882 1094 818 1110T695 1127Q597 1127 533 1085T437 957 405 743Q405 617 437 535T533 412 689 371Q781 371 849 389T989 439V239Q930 210 868 194T730 174V-20H577V180Q448 199 356 263T214 445 164 741Q164 929 215 1048T359 1232 577 1314V1483H731Z" unicode="&#xa2;"/><glyph d="M693 1482Q804 1482 898 1459T1067 1401L990 1219Q925 1248 853 1268T708 1289Q614 1289 559 1238T503 1068V828H899V655H503V472Q503 394 482 342T427 259 356 206H1111V0H75V195Q134 214 177 246T245 332 269 470V655H81V828H269V1078Q269 1215 324 1304T475 1438 693 1482Z" unicode="&#xa3;"/><glyph d="M186 723Q186 782 203 836T250 937L117 1071 237 1190 369 1059Q415 1089 471 1106T585 1123Q644 1123 697 1107T798 1058L931 1190 1052 1073 920 939Q949 894 967 839T985 723Q985 664 969 609T920 507L1049 375 931 258 798 388Q753 359 699 343T585 326Q525 326 469 342T368 389L237 260 119 377 250 509Q220 556 203 610T186 723ZM353 723Q353 659 384 606T468 523 585 492Q650 492 703 523T788 606 820 723Q820 789 789 842T704 926 585 958Q521 958 468 927T384 842 353 723Z" unicode="&#xa4;"/><glyph d="M584 801 905 1462H1149L747 703H977V553H696V397H977V246H696V0H472V246H190V397H472V553H190V703H415L19 1462H265L584 801Z" unicode="&#xa5;"/><glyph d="M474 1554H653V758H474V1554ZM474 316H653V-480H474V316Z" unicode="&#xa6;"/><glyph d="M131 805Q131 900 176 962T282 1058Q212 1098 173 1154T134 1291Q134 1417 241 1492T536 1567Q644 1567 727 1546T891 1490L824 1331Q756 1361 685 1383T528 1406Q425 1406 380 1378T334 1295Q334 1258 358 1230T435 1174 577 1113Q677 1076 750 1031T863 925 903 782Q903 680 862 617T762 517Q830 478 866 425T902 294Q902 151 785 69T462-14Q351-14 266 5T114 59V234Q163 211 222 190T345 156 465 143Q599 143 649 183T699 279Q699 317 681 344T611 400 461 467Q357 508 284 551T171 654 131 805ZM314 825Q314 778 341 741T425 671 576 601L610 588Q651 614 684 655T718 757Q718 805 694 843T608 915 438 986Q389 971 352 929T314 825Z" unicode="&#xa7;"/><glyph d="M295 1400Q295 1460 328 1487T409 1515Q457 1515 491 1488T526 1400Q526 1342 492 1313T409 1284Q361 1284 328 1313T295 1400ZM688 1400Q688 1460 721 1487T803 1515Q851 1515 885 1488T920 1400Q920 1342 886 1313T803 1284Q755 1284 722 1313T688 1400Z" unicode="&#xa8;"/><glyph d="M852-20Q689-20 552 36T313 193 156 431 100 731Q100 891 156 1028T315 1267 554 1426 852 1483Q1009 1483 1145 1427T1385 1270 1546 1031 1604 731Q1604 569 1549 432T1392 193 1153 36 852-20ZM884 268Q678 268 576 395T473 731Q473 866 521 970T663 1133 892 1193Q956 1193 1021 1177T1144 1132L1086 1005Q1036 1031 988 1045T894 1059Q770 1059 702 972T633 731Q633 573 694 488T891 403Q940 403 998 416T1107 450V318Q1058 296 1007 282T884 268ZM852 97Q982 97 1095 143T1294 275 1428 477 1477 731Q1477 862 1431 977T1300 1180 1101 1317 852 1367Q717 1367 603 1320T403 1188 272 986 225 731Q225 596 271 481T401 279 600 145 852 97Z" unicode="&#xa9;"/><glyph d="M385 1479Q523 1479 591 1415T659 1228V782H546L519 881Q478 830 419 800T284 770Q215 770 164 793T86 863 58 982Q58 1056 96 1103T209 1174 394 1202L500 1206V1238Q500 1296 463 1323T363 1351Q312 1351 259 1335T152 1294L98 1409Q157 1438 229 1458T385 1479ZM500 1103 401 1098Q294 1093 258 1061T222 983Q222 937 249 916T318 895Q409 895 454 940T500 1060V1103Z" unicode="&#xaa;"/><glyph d="M81 565 436 997 605 903 322 553 605 202 436 108 81 538V565ZM533 565 890 997 1059 903 776 553 1059 202 890 108 533 538V565Z" unicode="&#xab;"/><glyph d="M1071 811V256H894V633H96V811H1071Z" unicode="&#xac;"/><glyph d="M72 450V649H588V450H72Z" unicode="&#xad;"/><glyph d="M568 284V1183H835Q1000 1183 1078 1115T1156 914Q1156 817 1107 761T995 680L1232 284H1057L856 634H724V284H568ZM724 761H830Q912 761 955 802T999 910Q999 985 959 1018T828 1051H724V761ZM852-20Q689-20 552 36T313 193 156 431 100 731Q100 891 156 1028T315 1267 554 1426 852 1483Q1009 1483 1145 1427T1385 1270 1546 1031 1604 731Q1604 569 1549 432T1392 193 1153 36 852-20ZM852 97Q982 97 1095 143T1294 275 1428 477 1477 731Q1477 862 1431 977T1300 1180 1101 1317 852 1367Q717 1367 603 1320T403 1188 272 986 225 731Q225 596 271 481T401 279 600 145 852 97Z" unicode="&#xae;"/><glyph d="M1030 1556H-6V1720H1030V1556Z" unicode="&#xaf;"/><glyph d="M438 826Q338 826 262 867T142 983 99 1154Q99 1250 141 1324T260 1441 438 1483Q539 1483 615 1441T734 1325 778 1154Q778 1057 735 983T615 868 438 826ZM439 978Q521 978 568 1026T615 1154Q615 1237 567 1285T439 1333Q357 1333 310 1285T262 1154Q262 1074 309 1026T439 978Z" unicode="&#xb0;"/><glyph d="M96 0V177H1074V0H96ZM673 844H1073V666H673V262H495V666H96V844H495V1252H673V844Z" unicode="&#xb1;"/><glyph d="M665 852H53V988L283 1214Q355 1284 394 1329T448 1411 464 1489Q464 1541 433 1568T348 1596Q298 1596 251 1574T150 1508L55 1629Q117 1682 192 1715T366 1748Q497 1748 574 1684T652 1503Q652 1438 627 1383T551 1271 421 1141L284 1012H665V852Z" unicode="&#xb2;"/><glyph d="M358 1747Q492 1747 569 1685T647 1520Q647 1443 605 1392T487 1316V1307Q578 1288 626 1233T674 1100Q674 980 587 909T318 837Q243 837 177 852T48 899V1055Q115 1019 182 998T318 976Q409 976 452 1011T495 1110Q495 1169 448 1202T298 1236H183V1369H288Q392 1369 431 1406T471 1498Q471 1549 437 1577T346 1606Q290 1606 242 1586T137 1528L52 1643Q114 1689 187 1718T358 1747Z" unicode="&#xb3;"/><glyph d="M573 1569V1549Q549 1520 508 1480T419 1395 324 1310 239 1241H82V1267Q115 1305 155 1358T235 1467 302 1569H573Z" unicode="&#xb4;"/><glyph d="M1142 1107V0H959L924 151H912Q882 96 841 58T745 0 620-20Q547-20 492 5T401 75H394Q397 53 399 14T402-72 403-164V-492H168V1107H403V427Q403 300 457 236T623 171Q730 171 792 215T880 346 906 556V1107H1142Z" unicode="&#xb5;"/><glyph d="M1142-260H1006V1403H815V-260H678V568Q647 559 610 555T532 550Q407 550 314 598T169 755 118 1048Q118 1240 173 1351T329 1509 563 1556H1142V-260Z" unicode="&#xb6;"/><glyph d="M134 718Q134 800 176 833T280 867Q341 867 384 834T428 718Q428 638 385 603T280 567Q219 567 177 602T134 718Z" unicode="&#xb7;"/><glyph d="M423-268Q423-374 352-433T121-492Q83-492 51-487T-4-476V-339Q20-345 56-350T122-355Q174-355 204-337T235-276Q235-230 190-203T57-165L141 0H293L252-86Q298-98 336-121T399-180 423-268Z" unicode="&#xb8;"/><glyph d="M533 1729V852H346V1358Q346 1390 347 1427T350 1499 354 1556Q337 1539 313 1517T265 1477L172 1408 84 1519 368 1729H533Z" unicode="&#xb9;"/><glyph d="M719 1126Q719 957 630 864T388 770Q245 770 154 862T62 1126Q62 1296 150 1388T392 1480Q489 1480 562 1439T677 1318 719 1126ZM224 1126Q224 1015 263 959T390 902Q476 902 515 958T555 1126Q555 1236 516 1291T390 1346Q304 1346 264 1292T224 1126Z" unicode="&#xba;"/><glyph d="M1058 539 700 108 532 202 814 553 532 903 700 997 1058 565V539ZM604 539 248 108 80 202 362 553 80 903 248 997 604 565V539Z" unicode="&#xbb;"/><glyph d="M291 0 1136 1462H1328L483 0H291ZM318 586V1092Q318 1124 319 1161T321 1233 325 1290Q309 1273 284 1251T236 1211L143 1142 56 1253 340 1462H504V586H318ZM1273 0V179H881V304L1276 883H1463V319H1589V179H1463V0H1273ZM1040 319H1273V505Q1273 548 1274 599T1279 699Q1268 672 1241 623T1192 543L1040 319Z" unicode="&#xbc;"/><glyph d="M264 0 1109 1462H1300L455 0H264ZM306 586V1092Q306 1116 306 1143T308 1197 311 1249 314 1290Q297 1273 273 1251T225 1211L132 1142 45 1253 329 1462H493V586H306ZM990 0V136L1220 362Q1292 432 1331 477T1386 559 1402 637Q1402 689 1370 717T1286 745Q1235 745 1188 723T1087 656L993 777Q1055 830 1130 863T1303 896Q1434 896 1512 832T1590 651Q1590 586 1565 531T1488 419 1358 289L1221 160H1602V0H990Z" unicode="&#xbd;"/><glyph d="M374 0 1219 1462H1410L566 0H374ZM331 570Q257 570 191 585T62 633V789Q129 752 196 731T331 710Q422 710 465 745T509 844Q509 903 462 936T312 970H196V1103H301Q406 1103 445 1140T484 1232Q484 1283 451 1311T359 1340Q303 1340 255 1320T150 1262L66 1377Q128 1423 201 1452T372 1481Q505 1481 582 1418T660 1253Q660 1177 618 1126T500 1050V1040Q591 1021 639 966T688 834Q688 714 601 642T331 570ZM1328 0V179H936V304L1331 883H1518V319H1644V179H1518V0H1328ZM1096 319H1328V505Q1328 548 1329 599T1334 699Q1322 672 1295 623T1247 543L1096 319Z" unicode="&#xbe;"/><glyph d="M650 645V582Q650 509 633 454T577 350 469 247Q399 193 357 153T297 73 278-23Q278-107 336-152T497-197Q590-197 670-171T830-105L914-282Q823-331 717-362T481-393Q278-393 166-294T54-32Q54 56 82 119T165 236 297 350Q361 400 394 436T439 509 451 598V645H650ZM688 967Q688 885 647 851T541 817Q482 817 439 851T395 967Q395 1046 438 1082T541 1118Q605 1118 646 1082T688 967Z" unicode="&#xbf;"/><glyph d="M1098 0 955 406H396L253 0H0L544 1468H810L1353 0H1098ZM893 612 754 1012Q746 1038 731 1085T701 1182 676 1266Q666 1225 652 1175T624 1080 603 1012L463 612H893ZM617 1925Q644 1879 683 1823T764 1714 838 1623V1597H681Q643 1625 596 1665T501 1750 412 1835 347 1905V1925H617Z" unicode="&#xc0;"/><glyph d="M1098 0 955 406H396L253 0H0L544 1468H810L1353 0H1098ZM893 612 754 1012Q746 1038 731 1085T701 1182 676 1266Q666 1225 652 1175T624 1080 603 1012L463 612H893ZM1017 1925V1905Q993 1876 952 1836T863 1751 768 1666 683 1597H526V1623Q559 1661 599 1714T679 1823 746 1925H1017Z" unicode="&#xc1;"/><glyph d="M1098 0 955 406H396L253 0H0L544 1468H810L1353 0H1098ZM893 612 754 1012Q746 1038 731 1085T701 1182 676 1266Q666 1225 652 1175T624 1080 603 1012L463 612H893ZM810 1925Q837 1879 882 1823T977 1714 1065 1622V1597H905Q851 1631 791 1678T677 1781Q623 1726 565 1679T453 1597H294V1622Q332 1661 381 1714T475 1823 547 1925H810Z" unicode="&#xc2;"/><glyph d="M1098 0 955 406H396L253 0H0L544 1468H810L1353 0H1098ZM893 612 754 1012Q746 1038 731 1085T701 1182 676 1266Q666 1225 652 1175T624 1080 603 1012L463 612H893ZM280 1598Q286 1668 306 1720T358 1808 433 1862 526 1880Q570 1880 610 1863T689 1824 764 1784 835 1767Q874 1767 901 1795T943 1882H1066Q1054 1744 987 1672T820 1599Q778 1599 738 1616T659 1656 584 1695 512 1712Q472 1712 445 1684T404 1598H280Z" unicode="&#xc3;"/><glyph d="M1098 0 955 406H396L253 0H0L544 1468H810L1353 0H1098ZM893 612 754 1012Q746 1038 731 1085T701 1182 676 1266Q666 1225 652 1175T624 1080 603 1012L463 612H893ZM363 1756Q363 1816 396 1843T477 1871Q525 1871 559 1844T594 1756Q594 1698 560 1669T477 1640Q429 1640 396 1669T363 1756ZM756 1756Q756 1816 789 1843T871 1871Q919 1871 953 1844T988 1756Q988 1698 954 1669T871 1640Q823 1640 790 1669T756 1756Z" unicode="&#xc4;"/><glyph d="M1098 0 955 406H396L253 0H0L544 1468H810L1353 0H1098ZM893 612 754 1012Q746 1038 731 1085T701 1182 676 1266Q666 1225 652 1175T624 1080 603 1012L463 612H893ZM675 1350Q571 1350 506 1410T440 1577Q440 1682 505 1742T675 1802Q775 1802 844 1742T914 1579Q914 1471 846 1411T675 1350ZM675 1468Q722 1468 752 1497T783 1577Q783 1626 752 1655T675 1684Q629 1684 598 1655T567 1577Q567 1527 594 1498T675 1468Z" unicode="&#xc5;"/><glyph d="M1747 0H929V406H431L245 0H-1L670 1462H1747V1260H1169V863H1709V662H1169V203H1747V0ZM520 612H929V1254H808L520 612Z" unicode="&#xc6;"/><glyph d="M815 1279Q710 1279 628 1241T488 1132 401 959 371 730Q371 560 419 438T565 250 813 184Q906 184 994 202T1176 251V47Q1087 12 996-4T786-20Q562-20 415 73T195 335 122 731Q122 897 168 1035T302 1273 519 1428 816 1483Q926 1483 1032 1459T1230 1389L1146 1191Q1070 1227 987 1253T815 1279ZM979-268Q979-374 908-433T677-492Q639-492 607-487T552-476V-339Q576-345 612-350T678-355Q730-355 760-337T791-276Q791-230 746-203T613-165L697 0H849L808-86Q854-98 892-121T955-180 979-268Z" unicode="&#xc7;"/><glyph d="M1020 0H192V1462H1020V1260H432V863H983V662H432V203H1020V0ZM562 1925Q589 1879 628 1823T709 1714 783 1623V1597H626Q588 1625 541 1665T446 1750 357 1835 292 1905V1925H562Z" unicode="&#xc8;"/><glyph d="M1020 0H192V1462H1020V1260H432V863H983V662H432V203H1020V0ZM963 1925V1905Q939 1876 898 1836T809 1751 714 1666 629 1597H472V1623Q505 1661 545 1714T625 1823 692 1925H963Z" unicode="&#xc9;"/><glyph d="M1020 0H192V1462H1020V1260H432V863H983V662H432V203H1020V0ZM755 1925Q782 1879 827 1823T922 1714 1010 1622V1597H850Q796 1631 736 1678T622 1781Q568 1726 510 1679T398 1597H239V1622Q277 1661 326 1714T420 1823 492 1925H755Z" unicode="&#xca;"/><glyph d="M1020 0H192V1462H1020V1260H432V863H983V662H432V203H1020V0ZM309 1756Q309 1816 342 1843T423 1871Q471 1871 505 1844T540 1756Q540 1698 506 1669T423 1640Q375 1640 342 1669T309 1756ZM702 1756Q702 1816 735 1843T817 1871Q865 1871 899 1844T934 1756Q934 1698 900 1669T817 1640Q769 1640 736 1669T702 1756Z" unicode="&#xcb;"/><glyph d="M192 0V1462H432V0H192ZM218 1925Q245 1879 284 1823T365 1714 439 1623V1597H282Q244 1625 197 1665T102 1750 13 1835-52 1905V1925H218Z" unicode="&#xcc;"/><glyph d="M192 0V1462H432V0H192ZM678 1925V1905Q654 1876 613 1836T524 1751 429 1666 344 1597H187V1623Q220 1661 260 1714T340 1823 407 1925H678Z" unicode="&#xcd;"/><glyph d="M192 0V1462H432V0H192ZM444 1925Q471 1879 516 1823T611 1714 699 1622V1597H539Q485 1631 425 1678T311 1781Q257 1726 199 1679T87 1597H-72V1622Q-34 1661 15 1714T109 1823 181 1925H444Z" unicode="&#xce;"/><glyph d="M192 0V1462H432V0H192ZM2 1756Q2 1816 35 1843T116 1871Q164 1871 198 1844T233 1756Q233 1698 199 1669T116 1640Q68 1640 35 1669T2 1756ZM395 1756Q395 1816 428 1843T510 1871Q558 1871 592 1844T627 1756Q627 1698 593 1669T510 1640Q462 1640 429 1669T395 1756Z" unicode="&#xcf;"/><glyph d="M642 1462Q868 1462 1033 1381T1289 1140 1379 745Q1379 498 1287 333T1020 84 597 0H199V623H53V824H199V1462H642ZM636 1263H438V824H743V623H438V201H601Q865 201 997 336T1129 738Q1129 918 1072 1034T904 1206 636 1263Z" unicode="&#xd0;"/><glyph d="M1412 0H1117L401 1167H392Q396 1108 399 1042T405 906 410 764V0H192V1462H485L1200 303H1207Q1205 354 1202 420T1197 556 1193 693V1462H1412V0ZM408 1598Q414 1668 434 1720T486 1808 561 1862 654 1880Q698 1880 738 1863T817 1824 892 1784 963 1767Q1002 1767 1029 1795T1071 1882H1194Q1182 1744 1115 1672T948 1599Q906 1599 866 1616T787 1656 712 1695 640 1712Q600 1712 573 1684T532 1598H408Z" unicode="&#xd1;"/><glyph d="M1490 733Q1490 564 1448 426T1320 188 1107 34 807-20Q632-20 504 34T291 188 164 427 122 735Q122 961 196 1129T423 1391 809 1485Q1037 1485 1188 1392T1414 1131 1490 733ZM374 733Q374 564 420 441T561 251 807 184Q958 184 1053 250T1193 440 1238 733Q1238 990 1136 1135T809 1281Q659 1281 563 1215T420 1027 374 733ZM748 1925Q775 1879 814 1823T895 1714 969 1623V1597H812Q774 1625 727 1665T632 1750 543 1835 478 1905V1925H748Z" unicode="&#xd2;"/><glyph d="M1490 733Q1490 564 1448 426T1320 188 1107 34 807-20Q632-20 504 34T291 188 164 427 122 735Q122 961 196 1129T423 1391 809 1485Q1037 1485 1188 1392T1414 1131 1490 733ZM374 733Q374 564 420 441T561 251 807 184Q958 184 1053 250T1193 440 1238 733Q1238 990 1136 1135T809 1281Q659 1281 563 1215T420 1027 374 733ZM1148 1925V1905Q1124 1876 1083 1836T994 1751 899 1666 814 1597H657V1623Q690 1661 730 1714T810 1823 877 1925H1148Z" unicode="&#xd3;"/><glyph d="M1490 733Q1490 564 1448 426T1320 188 1107 34 807-20Q632-20 504 34T291 188 164 427 122 735Q122 961 196 1129T423 1391 809 1485Q1037 1485 1188 1392T1414 1131 1490 733ZM374 733Q374 564 420 441T561 251 807 184Q958 184 1053 250T1193 440 1238 733Q1238 990 1136 1135T809 1281Q659 1281 563 1215T420 1027 374 733ZM940 1925Q967 1879 1012 1823T1107 1714 1195 1622V1597H1035Q981 1631 921 1678T807 1781Q753 1726 695 1679T583 1597H424V1622Q462 1661 511 1714T605 1823 677 1925H940Z" unicode="&#xd4;"/><glyph d="M1490 733Q1490 564 1448 426T1320 188 1107 34 807-20Q632-20 504 34T291 188 164 427 122 735Q122 961 196 1129T423 1391 809 1485Q1037 1485 1188 1392T1414 1131 1490 733ZM374 733Q374 564 420 441T561 251 807 184Q958 184 1053 250T1193 440 1238 733Q1238 990 1136 1135T809 1281Q659 1281 563 1215T420 1027 374 733ZM410 1598Q416 1668 436 1720T488 1808 563 1862 656 1880Q700 1880 740 1863T819 1824 894 1784 965 1767Q1004 1767 1031 1795T1073 1882H1196Q1184 1744 1117 1672T950 1599Q908 1599 868 1616T789 1656 714 1695 642 1712Q602 1712 575 1684T534 1598H410Z" unicode="&#xd5;"/><glyph d="M1490 733Q1490 564 1448 426T1320 188 1107 34 807-20Q632-20 504 34T291 188 164 427 122 735Q122 961 196 1129T423 1391 809 1485Q1037 1485 1188 1392T1414 1131 1490 733ZM374 733Q374 564 420 441T561 251 807 184Q958 184 1053 250T1193 440 1238 733Q1238 990 1136 1135T809 1281Q659 1281 563 1215T420 1027 374 733ZM494 1756Q494 1816 527 1843T608 1871Q656 1871 690 1844T725 1756Q725 1698 691 1669T608 1640Q560 1640 527 1669T494 1756ZM887 1756Q887 1816 920 1843T1002 1871Q1050 1871 1084 1844T1119 1756Q1119 1698 1085 1669T1002 1640Q954 1640 921 1669T887 1756Z" unicode="&#xd6;"/><glyph d="M914 1176 1037 1053 708 723 1035 395 913 270 582 597 257 271 133 396 458 723 131 1050 257 1176 583 849 914 1176Z" unicode="&#xd7;"/><glyph d="M1490 733Q1490 564 1448 426T1320 188 1107 34 807-20Q699-20 609 1T447 64L351-76 212 16 312 162Q216 262 169 407T122 735Q122 961 196 1129T423 1391 809 1485Q913 1485 1003 1464T1165 1402L1256 1534 1394 1442 1297 1303Q1392 1205 1441 1060T1490 733ZM1238 733Q1238 845 1218 936T1157 1095L570 246Q617 216 675 200T807 184Q958 184 1053 250T1193 440 1238 733ZM374 733Q374 622 394 531T454 371L1042 1220Q996 1249 938 1265T809 1281Q659 1281 563 1215T420 1027 374 733Z" unicode="&#xd8;"/><glyph d="M1340 1462V516Q1340 363 1276 242T1081 51 754-20Q473-20 327 127T180 520V1462H420V541Q420 358 506 271T763 184Q881 184 955 225T1065 347 1101 542V1462H1340ZM702 1925Q729 1879 768 1823T849 1714 923 1623V1597H766Q728 1625 681 1665T586 1750 497 1835 432 1905V1925H702Z" unicode="&#xd9;"/><glyph d="M1340 1462V516Q1340 363 1276 242T1081 51 754-20Q473-20 327 127T180 520V1462H420V541Q420 358 506 271T763 184Q881 184 955 225T1065 347 1101 542V1462H1340ZM1102 1925V1905Q1078 1876 1037 1836T948 1751 853 1666 768 1597H611V1623Q644 1661 684 1714T764 1823 831 1925H1102Z" unicode="&#xda;"/><glyph d="M1340 1462V516Q1340 363 1276 242T1081 51 754-20Q473-20 327 127T180 520V1462H420V541Q420 358 506 271T763 184Q881 184 955 225T1065 347 1101 542V1462H1340ZM895 1925Q922 1879 967 1823T1062 1714 1150 1622V1597H990Q936 1631 876 1678T762 1781Q708 1726 650 1679T538 1597H379V1622Q417 1661 466 1714T560 1823 632 1925H895Z" unicode="&#xdb;"/><glyph d="M1340 1462V516Q1340 363 1276 242T1081 51 754-20Q473-20 327 127T180 520V1462H420V541Q420 358 506 271T763 184Q881 184 955 225T1065 347 1101 542V1462H1340ZM449 1756Q449 1816 482 1843T563 1871Q611 1871 645 1844T680 1756Q680 1698 646 1669T563 1640Q515 1640 482 1669T449 1756ZM842 1756Q842 1816 875 1843T957 1871Q1005 1871 1039 1844T1074 1756Q1074 1698 1040 1669T957 1640Q909 1640 876 1669T842 1756Z" unicode="&#xdc;"/><glyph d="M606 795 953 1462H1212L726 568V0H487V559L0 1462H261L606 795ZM948 1925V1905Q924 1876 883 1836T794 1751 699 1666 614 1597H457V1623Q490 1661 530 1714T610 1823 677 1925H948Z" unicode="&#xdd;"/><glyph d="M1161 776Q1161 682 1132 598T1038 448 864 345 597 307H432V0H192V1462H432V1220H626Q906 1220 1033 1102T1161 776ZM432 505H561Q681 505 759 531T877 617 916 772Q916 899 839 960T592 1021H432V505Z" unicode="&#xde;"/><glyph d="M1150 1255Q1150 1181 1121 1128T1050 1035 965 964 893 903 864 840Q864 812 881 789T941 737 1059 657Q1128 612 1178 565T1256 459 1283 318Q1283 205 1233 130T1090 18 865-20Q767-20 695-4T566 45V242Q600 221 647 202T748 170 852 157Q950 157 997 197T1045 310Q1045 355 1029 387T972 453 855 533Q771 584 722 627T652 714 631 813Q631 877 659 921T729 1000 812 1065 882 1133 910 1223Q910 1299 842 1339T667 1379Q592 1379 533 1358T438 1288 403 1160V0H168V1165Q168 1307 233 1395T411 1525 667 1567Q808 1567 917 1532T1088 1427 1150 1255Z" unicode="&#xdf;"/><glyph d="M602 1128Q812 1128 919 1035T1027 745V0H860L815 157H807Q760 97 710 58T595 0 435-20Q336-20 258 16T135 128 90 318Q90 489 217 575T603 670L795 677V735Q795 850 742 899T591 948Q508 948 430 924T278 865L202 1031Q283 1074 386 1101T602 1128ZM794 529 651 524Q475 518 404 464T333 316Q333 234 382 197T511 159Q633 159 713 228T794 433V529ZM535 1569Q562 1523 601 1467T682 1358 756 1267V1241H599Q561 1269 514 1309T419 1394 330 1479 265 1549V1569H535Z" unicode="&#xe0;"/><glyph d="M602 1128Q812 1128 919 1035T1027 745V0H860L815 157H807Q760 97 710 58T595 0 435-20Q336-20 258 16T135 128 90 318Q90 489 217 575T603 670L795 677V735Q795 850 742 899T591 948Q508 948 430 924T278 865L202 1031Q283 1074 386 1101T602 1128ZM794 529 651 524Q475 518 404 464T333 316Q333 234 382 197T511 159Q633 159 713 228T794 433V529ZM935 1569V1549Q911 1520 870 1480T781 1395 686 1310 601 1241H444V1267Q477 1305 517 1358T597 1467 664 1569H935Z" unicode="&#xe1;"/><glyph d="M602 1128Q812 1128 919 1035T1027 745V0H860L815 157H807Q760 97 710 58T595 0 435-20Q336-20 258 16T135 128 90 318Q90 489 217 575T603 670L795 677V735Q795 850 742 899T591 948Q508 948 430 924T278 865L202 1031Q283 1074 386 1101T602 1128ZM794 529 651 524Q475 518 404 464T333 316Q333 234 382 197T511 159Q633 159 713 228T794 433V529ZM727 1569Q754 1523 799 1467T894 1358 982 1266V1241H822Q768 1275 708 1322T594 1425Q540 1370 482 1323T370 1241H211V1266Q249 1305 298 1358T392 1467 464 1569H727Z" unicode="&#xe2;"/><glyph d="M602 1128Q812 1128 919 1035T1027 745V0H860L815 157H807Q760 97 710 58T595 0 435-20Q336-20 258 16T135 128 90 318Q90 489 217 575T603 670L795 677V735Q795 850 742 899T591 948Q508 948 430 924T278 865L202 1031Q283 1074 386 1101T602 1128ZM794 529 651 524Q475 518 404 464T333 316Q333 234 382 197T511 159Q633 159 713 228T794 433V529ZM197 1242Q203 1312 223 1364T275 1452 350 1506 443 1524Q487 1524 527 1507T606 1468 681 1428 752 1411Q791 1411 818 1439T860 1526H983Q971 1388 904 1316T737 1243Q695 1243 655 1260T576 1300 501 1339 429 1356Q389 1356 362 1328T321 1242H197Z" unicode="&#xe3;"/><glyph d="M602 1128Q812 1128 919 1035T1027 745V0H860L815 157H807Q760 97 710 58T595 0 435-20Q336-20 258 16T135 128 90 318Q90 489 217 575T603 670L795 677V735Q795 850 742 899T591 948Q508 948 430 924T278 865L202 1031Q283 1074 386 1101T602 1128ZM794 529 651 524Q475 518 404 464T333 316Q333 234 382 197T511 159Q633 159 713 228T794 433V529ZM537 1400Q537 1460 570 1487T651 1515Q699 1515 733 1488T768 1400Q768 1342 734 1313T651 1284Q603 1284 570 1313T537 1400ZM930 1400Q930 1460 963 1487T1045 1515Q1093 1515 1127 1488T1162 1400Q1162 1342 1128 1313T1045 1284Q997 1284 964 1313T930 1400Z" unicode="&#xe4;"/><glyph d="M602 1128Q812 1128 919 1035T1027 745V0H860L815 157H807Q760 97 710 58T595 0 435-20Q336-20 258 16T135 128 90 318Q90 489 217 575T603 670L795 677V735Q795 850 742 899T591 948Q508 948 430 924T278 865L202 1031Q283 1074 386 1101T602 1128ZM794 529 651 524Q475 518 404 464T333 316Q333 234 382 197T511 159Q633 159 713 228T794 433V529ZM596 1241Q492 1241 427 1301T361 1468Q361 1573 426 1633T596 1693Q696 1693 765 1633T835 1470Q835 1362 767 1302T596 1241ZM596 1359Q643 1359 673 1388T704 1468Q704 1517 673 1546T596 1575Q550 1575 519 1546T488 1468Q488 1418 515 1389T596 1359Z" unicode="&#xe5;"/><glyph d="M1274 1128Q1411 1128 1512 1067T1670 894 1725 628V501H1009Q1014 336 1091 251T1312 165Q1412 165 1497 185T1669 246V55Q1586 16 1502-2T1301-20Q1207-20 1127 5T984 79 876 203Q823 131 766 81T631 6 442-20Q344-20 264 16T137 128 90 318Q90 432 145 508T309 624 582 670L771 677V754Q771 858 717 903T571 948Q490 948 414 925T264 867L189 1031Q270 1074 374 1101T586 1128Q707 1128 791 1089T924 967Q983 1045 1070 1086T1274 1128ZM769 529 634 524Q468 518 401 464T333 316Q333 234 379 197T503 159Q580 159 640 190T734 282 769 433V529ZM1270 951Q1159 951 1092 881T1014 668H1494Q1494 752 1469 815T1395 915 1270 951Z" unicode="&#xe6;"/><glyph d="M614-20Q457-20 342 41T165 228 103 548Q103 750 171 878T359 1067 636 1128Q735 1128 815 1109T952 1061L882 873Q821 898 757 915T634 932Q537 932 473 889T377 761 345 550Q345 428 377 345T472 219 627 176Q718 176 790 198T926 255V51Q863 15 791-2T614-20ZM806-268Q806-374 735-433T504-492Q466-492 434-487T379-476V-339Q403-345 439-350T505-355Q557-355 587-337T618-276Q618-230 573-203T440-165L524 0H676L635-86Q681-98 719-121T782-180 806-268Z" unicode="&#xe7;"/><glyph d="M609 1128Q757 1128 863 1067T1026 894 1083 626V500H344Q348 339 430 252T662 165Q768 165 852 185T1027 246V55Q944 16 858-2T652-20Q489-20 366 43T173 233 103 546Q103 732 166 862T343 1060 609 1128ZM609 951Q498 951 430 879T349 668H853Q852 751 826 815T746 915 609 951ZM536 1569Q563 1523 602 1467T683 1358 757 1267V1241H600Q562 1269 515 1309T420 1394 331 1479 266 1549V1569H536Z" unicode="&#xe8;"/><glyph d="M609 1128Q757 1128 863 1067T1026 894 1083 626V500H344Q348 339 430 252T662 165Q768 165 852 185T1027 246V55Q944 16 858-2T652-20Q489-20 366 43T173 233 103 546Q103 732 166 862T343 1060 609 1128ZM609 951Q498 951 430 879T349 668H853Q852 751 826 815T746 915 609 951ZM936 1569V1549Q912 1520 871 1480T782 1395 687 1310 602 1241H445V1267Q478 1305 518 1358T598 1467 665 1569H936Z" unicode="&#xe9;"/><glyph d="M609 1128Q757 1128 863 1067T1026 894 1083 626V500H344Q348 339 430 252T662 165Q768 165 852 185T1027 246V55Q944 16 858-2T652-20Q489-20 366 43T173 233 103 546Q103 732 166 862T343 1060 609 1128ZM609 951Q498 951 430 879T349 668H853Q852 751 826 815T746 915 609 951ZM728 1569Q755 1523 800 1467T895 1358 983 1266V1241H823Q769 1275 709 1322T595 1425Q541 1370 483 1323T371 1241H212V1266Q250 1305 299 1358T393 1467 465 1569H728Z" unicode="&#xea;"/><glyph d="M609 1128Q757 1128 863 1067T1026 894 1083 626V500H344Q348 339 430 252T662 165Q768 165 852 185T1027 246V55Q944 16 858-2T652-20Q489-20 366 43T173 233 103 546Q103 732 166 862T343 1060 609 1128ZM609 951Q498 951 430 879T349 668H853Q852 751 826 815T746 915 609 951ZM538 1400Q538 1460 571 1487T652 1515Q700 1515 734 1488T769 1400Q769 1342 735 1313T652 1284Q604 1284 571 1313T538 1400ZM931 1400Q931 1460 964 1487T1046 1515Q1094 1515 1128 1488T1163 1400Q1163 1342 1129 1313T1046 1284Q998 1284 965 1313T931 1400Z" unicode="&#xeb;"/><glyph d="M403 0H168V1107H403V0ZM483 1569Q510 1523 549 1467T630 1358 704 1267V1241H547Q509 1269 462 1309T367 1394 278 1479 213 1549V1569H483Z" unicode="&#xec;"/><glyph d="M403 0H168V1107H403V0ZM627 1569V1549Q603 1520 562 1480T473 1395 378 1310 293 1241H136V1267Q169 1305 209 1358T289 1467 356 1569H627Z" unicode="&#xed;"/><glyph d="M403 0H168V1107H403V0ZM419 1569Q446 1523 491 1467T586 1358 674 1266V1241H514Q460 1275 400 1322T286 1425Q232 1370 174 1323T62 1241H-97V1266Q-59 1305-10 1358T84 1467 156 1569H419Z" unicode="&#xee;"/><glyph d="M403 0H168V1107H403V0ZM-27 1400Q-27 1460 6 1487T87 1515Q135 1515 169 1488T204 1400Q204 1342 170 1313T87 1284Q39 1284 6 1313T-27 1400ZM366 1400Q366 1460 399 1487T481 1515Q529 1515 563 1488T598 1400Q598 1342 564 1313T481 1284Q433 1284 400 1313T366 1400Z" unicode="&#xef;"/><glyph d="M449 1566Q519 1535 584 1499T706 1421L936 1560 1022 1432 835 1320Q933 1230 1002 1118T1109 868 1146 568Q1146 378 1083 247T902 48 621-20Q469-20 352 40T169 212 103 482Q103 640 163 751T331 922 582 981Q654 981 711 969T811 933 882 871L890 875Q857 976 800 1061T665 1217L417 1069 331 1199 535 1319Q496 1345 453 1371T365 1421L449 1566ZM626 801Q527 801 465 765T373 656 343 478Q343 384 372 313T464 201 625 161Q772 161 839 254T906 527Q906 582 890 631T839 718 752 779 626 801Z" unicode="&#xf0;"/><glyph d="M745 1128Q932 1128 1036 1032T1141 722V0H906V678Q906 807 853 871T689 936Q528 936 466 837T403 550V0H168V1107H351L384 957H397Q433 1015 486 1052T606 1109 745 1128ZM256 1242Q262 1312 282 1364T334 1452 409 1506 502 1524Q546 1524 586 1507T665 1468 740 1428 811 1411Q850 1411 877 1439T919 1526H1042Q1030 1388 963 1316T796 1243Q754 1243 714 1260T635 1300 560 1339 488 1356Q448 1356 421 1328T380 1242H256Z" unicode="&#xf1;"/><glyph d="M1148 556Q1148 418 1112 311T1007 131 841 19 622-20Q508-20 413 18T249 130 141 311 103 556Q103 739 166 866T348 1061 629 1128Q782 1128 899 1061T1082 866 1148 556ZM345 556Q345 435 374 349T466 218 626 172Q724 172 786 217T877 349 906 556Q906 677 877 761T786 890 625 935Q479 935 412 837T345 556ZM567 1569Q594 1523 633 1467T714 1358 788 1267V1241H631Q593 1269 546 1309T451 1394 362 1479 297 1549V1569H567Z" unicode="&#xf2;"/><glyph d="M1148 556Q1148 418 1112 311T1007 131 841 19 622-20Q508-20 413 18T249 130 141 311 103 556Q103 739 166 866T348 1061 629 1128Q782 1128 899 1061T1082 866 1148 556ZM345 556Q345 435 374 349T466 218 626 172Q724 172 786 217T877 349 906 556Q906 677 877 761T786 890 625 935Q479 935 412 837T345 556ZM968 1569V1549Q944 1520 903 1480T814 1395 719 1310 634 1241H477V1267Q510 1305 550 1358T630 1467 697 1569H968Z" unicode="&#xf3;"/><glyph d="M1148 556Q1148 418 1112 311T1007 131 841 19 622-20Q508-20 413 18T249 130 141 311 103 556Q103 739 166 866T348 1061 629 1128Q782 1128 899 1061T1082 866 1148 556ZM345 556Q345 435 374 349T466 218 626 172Q724 172 786 217T877 349 906 556Q906 677 877 761T786 890 625 935Q479 935 412 837T345 556ZM760 1569Q787 1523 832 1467T927 1358 1015 1266V1241H855Q801 1275 741 1322T627 1425Q573 1370 515 1323T403 1241H244V1266Q282 1305 331 1358T425 1467 497 1569H760Z" unicode="&#xf4;"/><glyph d="M1148 556Q1148 418 1112 311T1007 131 841 19 622-20Q508-20 413 18T249 130 141 311 103 556Q103 739 166 866T348 1061 629 1128Q782 1128 899 1061T1082 866 1148 556ZM345 556Q345 435 374 349T466 218 626 172Q724 172 786 217T877 349 906 556Q906 677 877 761T786 890 625 935Q479 935 412 837T345 556ZM230 1242Q236 1312 256 1364T308 1452 383 1506 476 1524Q520 1524 560 1507T639 1468 714 1428 785 1411Q824 1411 851 1439T893 1526H1016Q1004 1388 937 1316T770 1243Q728 1243 688 1260T609 1300 534 1339 462 1356Q422 1356 395 1328T354 1242H230Z" unicode="&#xf5;"/><glyph d="M1148 556Q1148 418 1112 311T1007 131 841 19 622-20Q508-20 413 18T249 130 141 311 103 556Q103 739 166 866T348 1061 629 1128Q782 1128 899 1061T1082 866 1148 556ZM345 556Q345 435 374 349T466 218 626 172Q724 172 786 217T877 349 906 556Q906 677 877 761T786 890 625 935Q479 935 412 837T345 556ZM313 1400Q313 1460 346 1487T427 1515Q475 1515 509 1488T544 1400Q544 1342 510 1313T427 1284Q379 1284 346 1313T313 1400ZM706 1400Q706 1460 739 1487T821 1515Q869 1515 903 1488T938 1400Q938 1342 904 1313T821 1284Q773 1284 740 1313T706 1400Z" unicode="&#xf6;"/><glyph d="M96 633V811H1074V633H96ZM584 237Q533 237 497 269T460 372Q460 447 496 476T584 506Q634 506 670 477T707 372Q707 302 671 270T584 237ZM584 938Q533 938 497 970T460 1072Q460 1147 496 1176T584 1206Q634 1206 670 1177T707 1072Q707 1002 671 970T584 938Z" unicode="&#xf7;"/><glyph d="M1148 556Q1148 373 1085 244T903 48 622-20Q551-20 488-5T370 40L292-71 161 19 243 135Q176 210 140 315T103 556Q103 830 244 979T629 1128Q702 1128 767 1111T889 1063L959 1163 1091 1073 1013 965Q1077 892 1112 789T1148 556ZM345 556Q345 490 353 435T381 337L773 895Q744 914 707 924T625 935Q479 935 412 837T345 556ZM906 556Q906 615 898 666T874 758L486 207Q513 189 549 181T626 172Q724 172 786 217T877 349 906 556Z" unicode="&#xf8;"/><glyph d="M1133 1107V0H948L916 149H903Q868 92 814 55T694-1 555-20Q430-20 342 22T206 154 159 384V1107H395V428Q395 299 447 235T611 171Q718 171 781 215T870 345 897 556V1107H1133ZM593 1569Q620 1523 659 1467T740 1358 814 1267V1241H657Q619 1269 572 1309T477 1394 388 1479 323 1549V1569H593Z" unicode="&#xf9;"/><glyph d="M1133 1107V0H948L916 149H903Q868 92 814 55T694-1 555-20Q430-20 342 22T206 154 159 384V1107H395V428Q395 299 447 235T611 171Q718 171 781 215T870 345 897 556V1107H1133ZM993 1569V1549Q969 1520 928 1480T839 1395 744 1310 659 1241H502V1267Q535 1305 575 1358T655 1467 722 1569H993Z" unicode="&#xfa;"/><glyph d="M1133 1107V0H948L916 149H903Q868 92 814 55T694-1 555-20Q430-20 342 22T206 154 159 384V1107H395V428Q395 299 447 235T611 171Q718 171 781 215T870 345 897 556V1107H1133ZM785 1569Q812 1523 857 1467T952 1358 1040 1266V1241H880Q826 1275 766 1322T652 1425Q598 1370 540 1323T428 1241H269V1266Q307 1305 356 1358T450 1467 522 1569H785Z" unicode="&#xfb;"/><glyph d="M1133 1107V0H948L916 149H903Q868 92 814 55T694-1 555-20Q430-20 342 22T206 154 159 384V1107H395V428Q395 299 447 235T611 171Q718 171 781 215T870 345 897 556V1107H1133ZM338 1400Q338 1460 371 1487T452 1515Q500 1515 534 1488T569 1400Q569 1342 535 1313T452 1284Q404 1284 371 1313T338 1400ZM731 1400Q731 1460 764 1487T846 1515Q894 1515 928 1488T963 1400Q963 1342 929 1313T846 1284Q798 1284 765 1313T731 1400Z" unicode="&#xfc;"/><glyph d="M1 1107H257L484 475Q499 432 511 391T533 309 549 229H555Q565 281 583 345T625 475L843 1107H1096L621-152Q580-260 521-336T380-452 195-492Q145-492 108-487T45-475V-287Q66-292 98-296T164-300Q227-300 273-275T351-205 404-101L443 3 1 1107ZM889 1569V1549Q865 1520 824 1480T735 1395 640 1310 555 1241H398V1267Q431 1305 471 1358T551 1467 618 1569H889Z" unicode="&#xfd;"/><glyph d="M1172 556Q1172 368 1118 240T965 46 735-20Q651-20 588 1T480 56 404 134H391Q394 115 397 84T402 20 404-36V-491H168V1556H404V1130Q404 1090 401 1038T394 955H404Q435 1003 480 1042T588 1104 736 1128Q933 1128 1052 983T1172 556ZM931 559Q931 747 868 841T674 936Q528 936 467 850T404 591V556Q404 371 463 272T676 173Q762 173 818 217T903 348 931 559Z" unicode="&#xfe;"/><glyph d="M1 1107H257L484 475Q499 432 511 391T533 309 549 229H555Q565 281 583 345T625 475L843 1107H1096L621-152Q580-260 521-336T380-452 195-492Q145-492 108-487T45-475V-287Q66-292 98-296T164-300Q227-300 273-275T351-205 404-101L443 3 1 1107ZM491 1400Q491 1460 524 1487T605 1515Q653 1515 687 1488T722 1400Q722 1342 688 1313T605 1284Q557 1284 524 1313T491 1400ZM884 1400Q884 1460 917 1487T999 1515Q1047 1515 1081 1488T1116 1400Q1116 1342 1082 1313T999 1284Q951 1284 918 1313T884 1400Z" unicode="&#xff;"/><glyph d="M82 456V645H942V456H82Z" unicode="&#x2013;"/><glyph d="M82 456V645H1966V456H82Z" unicode="&#x2014;"/><glyph d="M39 961 26 983Q44 1056 72 1139T134 1305 201 1462H371Q352 1383 332 1294T296 1119 268 961H39Z" unicode="&#x2018;"/><glyph d="M356 1462 371 1440Q353 1367 325 1284T263 1118 196 961H26Q40 1020 55 1085T84 1217 109 1346 128 1462H356Z" unicode="&#x2019;"/><glyph d="M395 237 410 215Q392 142 364 59T302-107 235-264H65Q79-205 94-140T123-8 148 121 167 237H395Z" unicode="&#x201a;"/><glyph d="M788 1462Q768 1383 748 1294T712 1119 685 961H456L442 983Q460 1056 488 1139T550 1305 618 1462H788ZM371 1462Q351 1383 331 1294T295 1119 267 961H39L26 983Q44 1056 72 1139T133 1305 201 1462H371Z" unicode="&#x201c;"/><glyph d="M773 1462 788 1440Q770 1367 742 1284T680 1118 613 961H441Q461 1040 481 1129T518 1305 545 1462H773ZM356 1462 370 1440Q352 1367 324 1284T262 1118 195 961H26Q40 1020 55 1085T83 1217 108 1346 127 1462H356Z" unicode="&#x201d;"/><glyph d="M812 237 827 215Q809 142 781 59T719-107 652-264H480Q500-185 520-96T557 80 584 237H812ZM395 237 409 215Q391 142 363 59T301-107 234-264H65Q79-205 94-140T122-8 147 121 166 237H395Z" unicode="&#x201e;"/><glyph d="M135 748Q135 849 168 910T257 999 385 1027Q455 1027 512 999T602 910 636 748Q636 650 603 588T512 498 385 469Q314 469 258 497T168 587 135 748Z" unicode="&#x2022;"/><glyph d="M81 565 436 997 605 903 322 553 605 202 436 108 81 538V565Z" unicode="&#x2039;"/><glyph d="M248 997 604 565V539L248 108 80 202 362 553 80 903 248 997Z" unicode="&#x203a;"/></font>
</defs>
</svg>
